Chop Shop (2007) [LiMiTED] *DVDRip* - SAPHiRE

Filmes lançados no ano de 2012 e anos anteriores. / Movies launched in the year of 2012 and previous. (Retail DVD)

Moderador: Moderador

Responder
semantico

Chop Shop (2007) [LiMiTED] *DVDRip* - SAPHiRE

Mensagem por semantico » 13 jul 2008, 19:34

Imagem

Sinopse
Alejandro um órfão latino, adolescente e ambicioso, vive de trabalhos em uma loja de reparos de autos nos arredores do Queens em Nova Iorque. Nesse mundo caótico de adultos, ele luta por uma vida melhor para ele e sua irmã de 16 anos, Isamar. Indicado para dois prêmios, vencedor de um deles, um filme bem aclamado pela crítica.
imdb.com
Chop Shop (2007)

Capa
Sinopse:Alejandro, a resourceful street orphan on the verge of adolescence, lives and works in an auto-body repair shop in a sprawling junkyard on the outskirts of Queens, New York. In this chaotic world of adults, Alejandro struggles to make a better life for himself and his sixteen-year-old sister.
Pontuação:7.3
Duração:84 minutos
Idioma:English
Realizador:Ramin Bahrani
Actores:Alejandro Polanco, Isamar Gonzales, Rob Sowulski, Carlos Zapata, Ahmad Razvi
  
Fonte:http://www.imdb.com/title/tt0990404
Última Actualização:Segunda Março 12, 2018 10:55

Código: Selecionar todos

General
Complete name                            : F:\Incoming\Chop.Shop.(2007).LiMiTED.DVDRip.XviD-SAPHiRE.[TheRostrum.net].avi
Format                                   : AVI
Format/Info                              : Audio Video Interleave
File size                                : 699 MiB
Duration                                 : 1 h 24 min
Overall bit rate mode                    : Variable
Overall bit rate                         : 1 162 kb/s
Writing application                      : VirtualDubMod 1.5.10.2 (build 2540/release)
Writing library                          : VirtualDubMod build 2540/release

Video
ID                                       : 0
Format                                   : MPEG-4 Visual
Format profile                           : Advanced Simple@L5
Format settings                          : BVOP2
Format settings, BVOP                    : 2
Format settings, QPel                    : No
Format settings, GMC                     : No warppoints
Format settings, Matrix                  : Default (MPEG)
Muxing mode                              : Packed bitstream
Codec ID                                 : XVID
Codec ID/Hint                            : XviD
Duration                                 : 1 h 24 min
Bit rate                                 : 998 kb/s
Width                                    : 576 pixels
Height                                   : 320 pixels
Display aspect ratio                     : 16:9
Frame rate                               : 23.976 (24000/1001) FPS
Color space                              : YUV
Chroma subsampling                       : 4:2:0
Bit depth                                : 8 bits
Scan type                                : Progressive
Compression mode                         : Lossy
Bits/(Pixel*Frame)                       : 0.226
Stream size                              : 601 MiB (86%)
Writing library                          : XviD 1.1.2 (UTC 2006-11-01)

Audio
ID                                       : 1
Format                                   : MPEG Audio
Format version                           : Version 1
Format profile                           : Layer 3
Format settings                          : Joint stereo / MS Stereo
Codec ID                                 : 55
Codec ID/Hint                            : MP3
Duration                                 : 1 h 24 min
Bit rate mode                            : Variable
Bit rate                                 : 151 kb/s
Minimum bit rate                         : 128 kb/s
Channel(s)                               : 2 channels
Sampling rate                            : 48.0 kHz
Frame rate                               : 41.667 FPS (1152 SPF)
Compression mode                         : Lossy
Stream size                              : 90.6 MiB (13%)
Alignment                                : Aligned on interleaves
Interleave, duration                     : 24  ms (0.58 video frame)
Interleave, preload duration             : 449  ms
Writing library                          : LAME3.98 
Encoding settings                        : -m j -V 2 -q 0 -lowpass 18.5 --vbr-new -b 128

Imagem Imagem
Imagem Imagem


ed2k: Chop.Shop.(2007).LiMiTED.DVDRip.XviD-SAPHiRE.[TheRostrum.net].avi  [699.11 Mb]
Não tem Permissão para ver os ficheiros anexados nesta mensagem.
Última edição por semantico em 13 jul 2008, 20:19, editado 1 vez no total.

Avatar do Utilizador
arf100c
eMuleCoop
eMuleCoop
Mensagens: 7377
Registado: 08 jun 2009, 15:48

Re: Chop Shop (2007) [LiMiTED] *DVDRip* - SAPHiRE

Mensagem por arf100c » 24 abr 2010, 05:04

..:: Adicionada legenda :portugal: ::..
:thanxu1:

Avatar do Utilizador
tainacan
Utilizador
Utilizador
Mensagens: 501
Registado: 05 mai 2011, 06:04

Re: Chop Shop (2007) [LiMiTED] *DVDRip* - SAPHiRE

Mensagem por tainacan » 18 jan 2019, 13:51

Obrigado Obrigado Obrigado

:cavalinho: :cavalinho: :cavalinho:

Responder

Voltar para “Filmes Arquivados // Filed Movies (Com Legendas/With Subtitles)”