Welcome to Marwen (2018) *1080p BluRay* - MT

1080p (a1080p, 1080p)
Qualquer Alta Resolução // Any High Definition release, be it full (BD, HDDVD, HDTV stream, BDRip, HDDVDRip, HDTVRip)

Moderador: Moderador

Responder
Avatar do Utilizador
Lost_Rider34
Administrador
Administrador
Mensagens: 10844
Registado: 15 out 2008, 14:07
Localização: Aqui
Contacto:

Welcome to Marwen (2018) *1080p BluRay* - MT

Mensagem por Lost_Rider34 » 30 jun 2020, 12:31

Imagem
Mark Hogancamp (Steve Carell) é agredido por vários homens em um bar, e entra em coma. Quando torna-se consciente novamente, ele perdeu totalmente a memória, esquecendo a família e os amigos. Para recuperar as lembranças, Mark constrói uma maquete em miniatura de uma cidade belga chamada Marwencol, com bonecos representando os familiares e amigos próximos.

When a devastating attack shatters Mark Hogancamp (Carell) and wipes away all memories, no one expected recovery. Putting together pieces from his old and new life, Mark meticulously creates a wondrous town where he can heal and be heroic. As he builds an astonishing art installation--a testament to the most powerful women he knows--through his fantasy world, he draws strength to triumph in the real one.
imdb.com
Welcome to Marwen (2018)

Capa
Sinopse:A victim of a brutal attack finds a unique and beautiful therapeutic outlet to help him through his recovery process.
Pontuação:5.9
Duração:116 minutos
Idioma:English, German, French
Realizador:Robert Zemeckis
Actores:Steve Carell, Falk Hentschel, Matt O'Leary, Nikolai Witschl, Patrick Roccas
  
Fonte:http://www.imdb.com/title/tt3289724
Última Actualização:Sexta Março 29, 2019 09:57

Código: Selecionar todos

	
Video
ID : 1
Format : AVC
Format/Info : Advanced Video Codec
Format profile : High@L4.1
Format settings : CABAC / 5 Ref Frames
Format settings, CABAC : Yes
Format settings, ReFrames : 5 frames
Codec ID : V_MPEG4/ISO/AVC
Duration : 1 h 55 min
Bit rate : 8 980 kb/s
Width : 1 920 pixels
Height : 804 pixels
Display aspect ratio : 2.40:1
Frame rate mode : Constant
Frame rate : 23.976 (24000/1001) FPS
Color space : YUV
Chroma subsampling : 4:2:0
Bit depth : 8 bits
Scan type : Progressive
Bits/(Pixel*Frame) : 0.243
Stream size : 7.27 GiB (86%)
Writing library : x264 core 157 r2938 2b00a84 TnP@MTeam Mod
Encoding settings : cabac=1 / ref=5 / deblock=1:-3:-3 / analyse=0x3:0x133 / me=umh / subme=10 / psy=1 / psy_rd=1.05:0.00 / mixed_ref=1 / me_range=32 / chroma_me=1 / trellis=2 / 8x8dct=1 / cqm=0 / deadzone=21,11 / fast_pskip=0 / chroma_qp_offset=-2 / threads=12 / lookahead_threads=2 / sliced_threads=0 / nr=0 / decimate=0 / interlaced=0 / bluray_compat=0 / constrained_intra=0 / bframes=8 / b_pyramid=2 / b_adapt=2 / b_bias=0 / direct=3 / weightb=1 / open_gop=0 / weightp=2 / keyint=250 / keyint_min=24 / scenecut=40 / intra_refresh=0 / rc_lookahead=250 / rc=crf / mbtree=0 / crf=16.8 / qcomp=0.60 / qpmin=0 / qpmax=69 / qpstep=4 / vbv_maxrate=62500 / vbv_bufsize=78125 / crf_max=0.0 / nal_hrd=none / filler=0 / ip_ratio=1.30 / pb_ratio=1.20 / aq=3:0.80
Language : English
Default : Yes
Forced : No
Color range : Limited
Color primaries : BT.709
Matrix coefficients : BT.709

Audio
ID : 2
Format : DTS
Format/Info : Digital Theater Systems
Codec ID : A_DTS
Duration : 1 h 55 min
Bit rate mode : Constant
Bit rate : 1 509 kb/s
Channel(s) : 6 channels
Channel layout : C L R Ls Rs LFE
Sampling rate : 48.0 kHz
Frame rate : 93.750 FPS (512 SPF)
Bit depth : 24 bits
Compression mode : Lossy
Stream size : 1.22 GiB (14%)
Language : English
Default : Yes
Forced : No

Text #1
ID : 3
Format : UTF-8
Codec ID : S_TEXT/UTF8
Codec ID/Info : UTF-8 Plain Text
Duration : 1 h 46 min
Bit rate : 52 b/s
Count of elements : 1464
Stream size : 41.2 KiB (0%)
Language : English
Default : Yes
Forced : No

Text #2
ID : 4
Format : UTF-8
Codec ID : S_TEXT/UTF8
Codec ID/Info : UTF-8 Plain Text
Duration : 1 h 46 min
Bit rate : 60 b/s
Count of elements : 1662
Stream size : 46.9 KiB (0%)
Title : SDH
Language : English
Default : No
Forced : No

Menu
00:00:00.000 : en:Chapter 01
00:04:17.257 : en:Chapter 02
00:10:57.448 : en:Chapter 03
00:16:42.877 : en:Chapter 04
00:22:26.971 : en:Chapter 05
00:27:34.820 : en:Chapter 06
00:35:10.775 : en:Chapter 07
00:41:09.217 : en:Chapter 08
00:45:59.256 : en:Chapter 09
00:51:35.634 : en:Chapter 10
01:00:35.924 : en:Chapter 11
01:03:30.974 : en:Chapter 12
01:08:07.250 : en:Chapter 13
01:13:38.706 : en:Chapter 14
01:17:14.713 : en:Chapter 15
01:25:13.525 : en:Chapter 16
01:30:48.485 : en:Chapter 17
01:39:34.719 : en:Chapter 18
01:43:31.372 : en:Chapter 19
01:48:50.232 : en:Chapter 20
Imagem Imagem
Imagem Imagem
Imagem Imagem

phpBB [video]


LINKS:

ed2k: Welcome.to.Marwen.2018.1080p.BluRay.x264.DTS-MT.[TheRostrum.net].mkv  [8.50 Gb]
ed2k: Welcome.to.Marwen.2018.1080p.BluRay.x264.DTS-MT.[TheRostrum.net].srt  [91.5 Kb]
Não tem Permissão para ver os ficheiros anexados nesta mensagem.
Imagem

Pela sua saude fique em casa / For your health stay at home

Imagem

Avatar do Utilizador
coutinho
Utilizador
Utilizador
Mensagens: 1585
Registado: 26 out 2011, 11:06

Re: Welcome to Marwen (2018) *1080p BluRay* - MT

Mensagem por coutinho » 30 jun 2020, 14:40

Vai sair. Obrigado

Responder
  • Tópicos Semelhantes
    Respostas
    Visualizações
    Última Mensagem

Voltar para “Alta Definição // High Definition (Com Legendas/With Subtitles)”