Playing with Fire (2019) *1080p BluRay* - FGT

1080p (a1080p, 1080p)
Qualquer Alta Resolução // Any High Definition release, be it full (BD, HDDVD, HDTV stream, BDRip, HDDVDRip, HDTVRip)

Moderador: Moderador

Responder
Avatar do Utilizador
Lost_Rider34
Administrador
Administrador
Mensagens: 10835
Registado: 15 out 2008, 14:07
Localização: Aqui
Contacto:

Playing with Fire (2019) *1080p BluRay* - FGT

Mensagem por Lost_Rider34 » 18 mai 2020, 21:09

Imagem
O casal Maria (Naomi Watts) e Henry (Ewan McGregor) está aproveitando as férias de inverno na Tailândia junto com os três filhos pequenos. Mas na manhã de 26 de dezembro de 2004, enquanto curtiam aquele paraíso após uma linda noite de Natal, um tsunami de proporções devastadoras atinge o local, arrastando tudo o que encontra pela frente. Separados em dois grupos, a mãe e o filho mais velho vão enfrentar situações desesperadoras para se manterem vivos, enquanto em algum outro lugar, o pai e as duas crianças menores não têm a menor ideia se os outros dois estão vivos. É quando eles começam a viver uma trágica lição de vida, movida pela esperança do reencontro e misturando os mais diversos sentimentos.

When straight-laced fire superintendent Jake Carson (John Cena) and his elite team of expert firefighters (Keegan-Michael Key, John Leguizamo and Tyler Mane) come to the rescue of three siblings (Brianna Hildebrand, Christian Convery and Finley Rose Slater) in the path of an encroaching wildfire, they quickly realize that no amount of training could prepare them for their most challenging job yet -- babysitters. Unable to locate the children's parents, the firefighters have their lives, jobs and even their fire depot turned upside down and quickly learn that kids -- much like fires -- are wild and unpredictable.
imdb.com
Playing with Fire (2019)

Capa
Sinopse:A crew of rugged firefighters meet their match when attempting to rescue three rambunctious kids.
Pontuação:4.7
Duração:96 minutos
Idioma:English
Realizador:Andy Fickman
Actores:John Cena, Keegan-Michael Key, John Leguizamo, Brianna Hildebrand, Christian Convery
  
Fonte:http://www.imdb.com/title/tt9134216
Última Actualização:Quinta Janeiro 23, 2020 19:51

Código: Selecionar todos

Video
 ID : 1
 Format : AVC
 Format/Info : Advanced Video Codec
 Format profile : High@L4.1
 Format settings : CABAC / 4 Ref Frames
 Format settings, CABAC : Yes
 Format settings, Reference frames : 4 frames
 Codec ID : V_MPEG4/ISO/AVC
 Duration : 1 h 35 min
 Bit rate : 8 267 kb/s
 Width : 1 920 pixels
 Height : 1 080 pixels
 Display aspect ratio : 16:9
 Frame rate mode : Constant
 Frame rate : 23.976 (24000/1001) FPS
 Color space : YUV
 Chroma subsampling : 4:2:0
 Bit depth : 8 bits
 Scan type : Progressive
 Bits/(Pixel*Frame) : 0.166
 Stream size : 5.54 GiB (70%)
 Title : Playing.with.Fire.2019.1080p.BluRay.x264.DTS-HD.MA.5.1-FGT
 Writing library : x264 core 157 r2969 d4099dd
 Encoding settings : cabac=1 / ref=4 / deblock=1:0:0 / analyse=0x3:0x113 / me=umh / subme=8 / psy=1 / psy_rd=1.00:0.00 / mixed_ref=1 / me_range=16 / chroma_me=1 / trellis=1 / 8x8dct=1 / cqm=0 / deadzone=21,11 / fast_pskip=1 / chroma_qp_offset=-2 / threads=16 / lookahead_threads=2 / sliced_threads=0 / nr=0 / decimate=1 / interlaced=0 / bluray_compat=0 / constrained_intra=0 / bframes=3 / b_pyramid=2 / b_adapt=2 / b_bias=0 / direct=3 / weightb=1 / open_gop=0 / weightp=2 / keyint=240 / keyint_min=23 / scenecut=40 / intra_refresh=0 / rc_lookahead=50 / rc=2pass / mbtree=1 / bitrate=8267 / ratetol=1.0 / qcomp=0.60 / qpmin=0 / qpmax=69 / qpstep=4 / cplxblur=20.0 / qblur=0.5 / ip_ratio=1.40 / aq=1:1.00
 Language : English
 Default : Yes
 Forced : No

 Audio
 ID : 2
 Format : DTS XLL
 Format/Info : Digital Theater Systems
 Commercial name : DTS-HD Master Audio
 Codec ID : A_DTS
 Duration : 1 h 35 min
 Bit rate mode : Variable
 Bit rate : 3 593 kb/s
 Channel(s) : 6 channels
 Channel layout : C L R Ls Rs LFE
 Sampling rate : 48.0 kHz
 Frame rate : 93.750 FPS (512 SPF)
 Bit depth : 24 bits
 Compression mode : Lossless
 Stream size : 2.41 GiB (30%)
 Title : Playing.with.Fire.2019.1080p.BluRay.x264.DTS-HD.MA.5.1-FGT
 Language : English
 Default : Yes
 Forced : No

 Text #1
 ID : 3
 Format : UTF-8
 Codec ID : S_TEXT/UTF8
 Codec ID/Info : UTF-8 Plain Text
 Duration : 1 h 30 min
 Bit rate : 73 b/s
 Count of elements : 1576
 Stream size : 48.9 KiB (0%)
 Title : English-SRT
 Language : English
 Default : Yes
 Forced : No

 Text #2
 ID : 4
 Format : PGS
 Muxing mode : zlib
 Codec ID : S_HDMV/PGS
 Codec ID/Info : Picture based subtitle format used on BDs/HD-DVDs
 Duration : 1 h 30 min
 Bit rate : 45.4 kb/s
 Count of elements : 3042
 Stream size : 29.4 MiB (0%)
 Title : English-PGS
 Language : English
 Default : No
 Forced : No

 Menu
 00:00:00.000 : :Chapter 01
 00:04:34.483 : :Chapter 02
 00:11:38.823 : :Chapter 03
 00:18:42.246 : :Chapter 04
 00:23:04.675 : :Chapter 05
 00:28:04.224 : :Chapter 06
 00:32:23.984 : :Chapter 07
 00:41:30.571 : :Chapter 08
 00:48:22.399 : :Chapter 09
 00:52:17.760 : :Chapter 10
 00:57:26.693 : :Chapter 11
 01:02:15.231 : :Chapter 12
 01:10:37.525 : :Chapter 13
 01:16:56.237 : :Chapter 14
 01:23:43.852 : :Chapter 15
 01:29:19.271 : :Chapter 16
Imagem Imagem
Imagem Imagem
Imagem Imagem


phpBB [video]



LINKS:

ed2k: Playing.with.Fire.2019.1080p.BluRay.x264.DTS-HD.MA.5.1-FGT.[Therostrum.net].mkv  [7.96 Gb]
ed2k: Playing.with.Fire.2019.1080p.BluRay.x264.DTS-HD.MA.5.1-FGT.[Therostrum.net].srt  [99.8 Kb]
Não tem Permissão para ver os ficheiros anexados nesta mensagem.
Imagem

Pela sua saude fique em casa / For your health stay at home

Imagem

Avatar do Utilizador
coutinho
Utilizador
Utilizador
Mensagens: 1572
Registado: 26 out 2011, 11:06

Re: Playing with Fire (2019) *1080p BluRay* - FGT

Mensagem por coutinho » 19 mai 2020, 11:41

Vai sair. Obrigado

micromxip666
Utilizador
Utilizador
Mensagens: 35
Registado: 20 jun 2017, 15:45

Re: Playing with Fire (2019) *1080p BluRay* - FGT

Mensagem por micromxip666 » 23 mai 2020, 19:50

adorei
fartei me de rir.
obrigado

Responder

Voltar para “Alta Definição // High Definition (Com Legendas/With Subtitles)”