Escape Room (2019) *1080p BluRay* - FGT

1080p (a1080p, 1080p)
Qualquer Alta Resolução // Any High Definition release, be it full (BD, HDDVD, HDTV stream, BDRip, HDDVDRip, HDTVRip)

Moderador: Moderador

Responder
Avatar do Utilizador
Lost_Rider34
Administrador
Administrador
Mensagens: 10688
Registado: 15 out 2008, 14:07
Localização: Aqui
Contacto:

Escape Room (2019) *1080p BluRay* - FGT

Mensagem por Lost_Rider34 » 17 abr 2019, 12:48

Imagem
Passando por momentos complicados em suas respectivas vidas, seis estranhos acabam sendo misteriosamente convidados para um experimento inusitado: trancados em uma imersiva sala enigmática cheia de armadilhas, eles ganharão um milhão de dólares caso consigam sair. Mas quando percebem que os perigos são mais letais do que imaginavam, precisam agir rápido para desvendar as pistas que lhes são dadas.

Escape Room is a psychological thriller about six strangers who find themselves in circumstances beyond their control and must use their wits to find the clues or die.
imdb.com
Escape Room (2019)

Capa
Sinopse:Six strangers find themselves in a maze of deadly mystery rooms, and must use their wits to survive.
Pontuação:6.4
Duração:99 minutos
Idioma:English
Realizador:Adam Robitel
Actores:Taylor Russell, Logan Miller, Jay Ellis, Tyler Labine, Deborah Ann Woll
  
Fonte:http://www.imdb.com/title/tt5886046
Última Actualização:Sexta Abril 12, 2019 20:15

Código: Selecionar todos

Video
 ID : 1
 Format : AVC
 Format/Info : Advanced Video Codec
 Format profile : High@L4.1
 Format settings : CABAC / 5 Ref Frames
 Format settings, CABAC : Yes
 Format settings, ReFrames : 5 frames
 Codec ID : V_MPEG4/ISO/AVC
 Duration : 1 h 39 min
 Bit rate : 9 485 kb/s
 Width : 1 920 pixels
 Height : 808 pixels
 Display aspect ratio : 2.40:1
 Frame rate mode : Constant
 Frame rate : 23.976 (24000/1001) FPS
 Color space : YUV
 Chroma subsampling : 4:2:0
 Bit depth : 8 bits
 Scan type : Progressive
 Bits/(Pixel*Frame) : 0.255
 Stream size : 6.60 GiB (81%)
 Title : Escape.Room.2019.1080p.BluRay.x264.DTS-HD.MA.5.1-FGT
 Writing library : x264 core 157 r2970 5493be8
 Encoding settings : cabac=1 / ref=5 / deblock=1:-3:-3 / analyse=0x3:0x113 / me=umh / subme=8 / psy=1 / psy_rd=1.00:0.00 / mixed_ref=1 / me_range=16 / chroma_me=1 / trellis=1 / 8x8dct=1 / cqm=0 / deadzone=21,11 / fast_pskip=1 / chroma_qp_offset=-2 / threads=25 / lookahead_threads=4 / sliced_threads=0 / nr=0 / decimate=1 / interlaced=0 / bluray_compat=0 / constrained_intra=0 / bframes=3 / b_pyramid=2 / b_adapt=1 / b_bias=0 / direct=3 / weightb=1 / open_gop=0 / weightp=2 / keyint=250 / keyint_min=23 / scenecut=40 / intra_refresh=0 / rc_lookahead=50 / rc=2pass / mbtree=1 / bitrate=9485 / ratetol=1.0 / qcomp=0.60 / qpmin=0 / qpmax=69 / qpstep=4 / cplxblur=20.0 / qblur=0.5 / ip_ratio=1.40 / aq=1:1.00
 Language : English
 Default : Yes
 Forced : No

 Audio
 ID : 2
 Format : DTS XLL
 Format/Info : Digital Theater Systems
 Commercial name : DTS-HD Master Audio
 Codec ID : A_DTS
 Duration : 1 h 39 min
 Bit rate mode : Variable
 Bit rate : 2 247 kb/s
 Channel(s) : 6 channels
 Channel layout : C L R Ls Rs LFE
 Sampling rate : 48.0 kHz
 Frame rate : 93.750 FPS (512 SPF)
 Bit depth : 16 bits
 Compression mode : Lossless
 Stream size : 1.56 GiB (19%)
 Title : Escape.Room.2019.1080p.BluRay.x264.DTS-HD.MA.5.1-FGT
 Language : English
 Default : Yes
 Forced : No

 Text
 ID : 3
 Format : UTF-8
 Codec ID : S_TEXT/UTF8
 Codec ID/Info : UTF-8 Plain Text
 Duration : 1 h 33 min[video][/video]
 Bit rate : 70 b/s
 Count of elements : 1359
 Stream size : 48.1 KiB (0%)
 Title : English-SRT
 Language : English
 Default : Yes
 Forced : No

 Menu
 00:00:00.000 : en:00:00:00.000
 00:04:36.026 : en:00:04:36.026
 00:09:25.648 : en:00:09:25.648
 00:14:08.765 : en:00:14:08.765
 00:19:46.102 : en:00:19:46.102
 00:25:55.220 : en:00:25:55.220
 00:33:08.945 : en:00:33:08.945
 00:37:27.162 : en:00:37:27.162
 00:43:05.082 : en:00:43:05.082
 00:50:06.170 : en:00:50:06.170
 00:53:58.569 : en:00:53:58.569
 01:03:15.291 : en:01:03:15.291
 01:09:07.894 : en:01:09:07.894
 01:16:14.695 : en:01:16:14.695
 01:22:48.755 : en:01:22:48.755
 01:30:27.881 : en:01:30:27.881
Imagem Imagem
Imagem Imagem
Imagem Imagem
Imagem Imagem

phpBB [video]


Links:

ed2k: Escape.Room.2019.1080p.BluRay.x264.DTS-HD.MA.5.1-FGT.[TheRostrum.net].mkv  [8.16 Gb]
ed2k: Escape.Room.2019.1080p.BluRay.x264.DTS-HD.MA.5.1-FGT.[TheRostrum.net].srt  [104.1 Kb]
Não tem Permissão para ver os ficheiros anexados nesta mensagem.
Imagem

Imagem

giraldino
Utilizador
Utilizador
Mensagens: 2841
Registado: 22 dez 2010, 22:24

Re: Escape Room (2019) *1080p BluRay* - FGT

Mensagem por giraldino » 17 abr 2019, 15:59

Obrigado.

Avatar do Utilizador
coutinho
Utilizador
Utilizador
Mensagens: 1484
Registado: 26 out 2011, 11:06

Re: Escape Room (2019) *1080p BluRay* - FGT

Mensagem por coutinho » 17 abr 2019, 16:57

Vai sair. Obrigado

Responder

Voltar para “Alta Definição // High Definition (Com Legendas/With Subtitles)”