Aquaman (2018) [IMAX] *1080p BluRay* - FGT

1080p (a1080p, 1080p)
Qualquer Alta Resolução // Any High Definition release, be it full (BD, HDDVD, HDTV stream, BDRip, HDDVDRip, HDTVRip)

Moderador: Moderador

Responder
Avatar do Utilizador
Lost_Rider34
Administrador
Administrador
Mensagens: 10687
Registado: 15 out 2008, 14:07
Localização: Aqui
Contacto:

Aquaman (2018) [IMAX] *1080p BluRay* - FGT

Mensagem por Lost_Rider34 » 15 mar 2019, 20:47

Imagem
O meio-humano, meio-Atlante Arthur Curry (Jason Momoa), é levado à jornada de sua vida — uma jornada que vai forçá-lo a não só encarar sua verdadeira identidade, mas também a descobrir se ele tem o que é necessário para ser… um rei.

From Warner Bros. Pictures and director James Wan comes an action-packed adventure that spans the vast, visually breathtaking underwater world of the seven seas, "Aquaman," starring Jason Momoa in the title role. The film reveals the origin story of half-human, half-Atlantean Arthur Curry and takes him on the journey of his lifetime--one that will not only force him to face who he really is, but to discover if he is worthy of who he was born to be... a king.
imdb.com
Aquaman (2018)

Capa
Sinopse:Arthur Curry, the human-born heir to the underwater kingdom of Atlantis, goes on a quest to prevent a war between the worlds of ocean and land.
Pontuação:7.5
Duração:143 minutos
Idioma:English
Realizador:James Wan
Actores:Jason Momoa, Amber Heard, Willem Dafoe, Patrick Wilson, Nicole Kidman
  
Fonte:http://www.imdb.com/title/tt1477834
Última Actualização:Quinta Janeiro 24, 2019 05:15

Código: Selecionar todos

Video
 ID : 1
 Format : AVC
 Format/Info : Advanced Video Codec
 Format profile : High@L4.1
 Format settings : CABAC / 4 Ref Frames
 Format settings, CABAC : Yes
 Format settings, ReFrames : 4 frames
 Codec ID : V_MPEG4/ISO/AVC
 Duration : 2 h 23 min
 Bit rate : 9 409 kb/s
 Width : 1 920 pixels
 Height : 1 080 pixels
 Display aspect ratio : 16:9
 Frame rate mode : Constant
 Frame rate : 23.976 (24000/1001) FPS
 Color space : YUV
 Chroma subsampling : 4:2:0
 Bit depth : 8 bits
 Scan type : Progressive
 Bits/(Pixel*Frame) : 0.189
 Stream size : 9.42 GiB (69%)
 Title : Aquaman.2018.IMAX.1080p.BluRay.x264.DTS-HD.MA.7.1-FGT
 Writing library : x264 core 157 r2935 545de2f
 Encoding settings : cabac=1 / ref=4 / deblock=1:-3:-3 / analyse=0x3:0x113 / me=umh / subme=8 / psy=1 / psy_rd=1.00:0.00 / mixed_ref=1 / me_range=16 / chroma_me=1 / trellis=1 / 8x8dct=1 / cqm=0 / deadzone=21,11 / fast_pskip=1 / chroma_qp_offset=-2 / threads=30 / lookahead_threads=5 / sliced_threads=0 / nr=0 / decimate=1 / interlaced=0 / bluray_compat=0 / constrained_intra=0 / bframes=3 / b_pyramid=2 / b_adapt=1 / b_bias=0 / direct=3 / weightb=1 / open_gop=0 / weightp=2 / keyint=250 / keyint_min=23 / scenecut=40 / intra_refresh=0 / rc_lookahead=50 / rc=2pass / mbtree=1 / bitrate=9409 / ratetol=1.0 / qcomp=0.60 / qpmin=0 / qpmax=69 / qpstep=4 / cplxblur=20.0 / qblur=0.5 / ip_ratio=1.40 / aq=1:1.00
 Language : English
 Default : Yes
 Forced : No

 Audio
 ID : 2
 Format : DTS XLL
 Format/Info : Digital Theater Systems
 Commercial name : DTS-HD Master Audio
 Codec ID : A_DTS
 Duration : 2 h 23 min
 Bit rate mode : Variable
 Bit rate : 4 293 kb/s
 Channel(s) : 8 channels
 Channel layout : C L R LFE Lb Rb Lss Rss
 Sampling rate : 48.0 kHz
 Frame rate : 93.750 FPS (512 SPF)
 Bit depth : 24 bits
 Compression mode : Lossless
 Stream size : 4.30 GiB (31%)
 Title : Aquaman.2018.IMAX.1080p.BluRay.x264.DTS-HD.MA.7.1-FGT
 Language : English
 Default : Yes
 Forced : No

 Text #1
 ID : 3
 Format : UTF-8
 Codec ID : S_TEXT/UTF8
 Codec ID/Info : UTF-8 Plain Text
 Duration : 2 h 14 min
 Bit rate : 38 b/s
 Count of elements : 1132
 Stream size : 37.5 KiB (0%)
 Title : English-SRT
 Language : English
 Default : Yes
 Forced : No

 Text #2
 ID : 4
 Format : UTF-8
 Codec ID : S_TEXT/UTF8
 Codec ID/Info : UTF-8 Plain Text
 Duration : 2 h 15 min
 Bit rate : 44 b/s
 Count of elements : 1474
 Stream size : 43.6 KiB (0%)
 Title : English-SDH-SRT
 Language : English
 Default : No
 Forced : No

 Text #3
 ID : 5
 Format : PGS
 Muxing mode : zlib
 Codec ID : S_HDMV/PGS
 Codec ID/Info : Picture based subtitle format used on BDs/HD-DVDs
 Duration : 2 h 22 min
 Bit rate : 25.8 kb/s
 Count of elements : 2940
 Stream size : 26.4 MiB (0%)
 Title : English-PGS
 Language : English
 Default : No
 Forced : No

 Menu
 00:00:00.000 : en:00:00:00.000
 00:11:09.294 : en:00:11:09.294
 00:22:11.622 : en:00:22:11.622
 00:30:11.018 : en:00:30:11.018
 00:40:28.718 : en:00:40:28.718
 00:50:24.647 : en:00:50:24.647
 01:01:15.755 : en:01:01:15.755
 01:08:57.091 : en:01:08:57.091
 01:21:41.271 : en:01:21:41.271
 01:34:50.435 : en:01:34:50.435
 01:39:37.430 : en:01:39:37.430
 01:49:32.816 : en:01:49:32.816
 02:01:36.539 : en:02:01:36.539
 02:10:19.895 : en:02:10:19.895
Imagem Imagem
Imagem Imagem
Imagem Imagem
Imagem Imagem


phpBB [video]


LINKS:

ed2k: Aquaman.2018.IMAX.1080p.BluRay.x264.DTS-HD.MA.7.1-FGT.[TheRostrum.net].mkv  [13.73 Gb]
ed2k: Aquaman.2018.IMAX.1080p.BluRay.x264.DTS-HD.MA.7.1-FGT.[TheRostrum.net].srt  [79.7 Kb]
Não tem Permissão para ver os ficheiros anexados nesta mensagem.
Imagem

Imagem

Avatar do Utilizador
coutinho
Utilizador
Utilizador
Mensagens: 1478
Registado: 26 out 2011, 11:06

Re: Aquaman (2018) [IMAX] *1080p BluRay* - FGT

Mensagem por coutinho » 16 mar 2019, 07:54

Vai sair. Obrigado

Responder

Voltar para “Alta Definição // High Definition (Com Legendas/With Subtitles)”