Blockers (2018) [REMUX] *1080p BluRay* - FGT

1080p (a1080p, 1080p)
Qualquer Alta Resolução // Any High Definition release, be it full (BD, HDDVD, HDTV stream, BDRip, HDDVDRip, HDTVRip)

Moderador: Moderador

Responder
Avatar do Utilizador
Lost_Rider34
Administrador
Administrador
Mensagens: 10592
Registado: 15 out 2008, 14:07
Localização: Aqui
Contacto:

Blockers (2018) [REMUX] *1080p BluRay* - FGT

Mensagem por Lost_Rider34 » 11 ago 2018, 03:28

Imagem

Com o baile de formatura quase chegando, três jovens fazem o pacto de perderem a virgindade na noite da festa. Os pais (Leslie Mann, John Cena, Ike Barinholtz) das três garotas descobrem o plano delas e saem para tentar impedir que elas façam sexo, antes que seja tarde demais.

When three parents stumble upon their daughters' pact to lose their virginity at prom, they launch a covert one-night operation to stop the teens from sealing the deal. Leslie Mann (The Other Woman, This Is 40), Ike Barinholtz (Neighbors, Suicide Squad) and John Cena (Trainwreck, Sisters) star in Blockers, the directorial debut of Kay Cannon (writer of the Pitch Perfect series). The comedy is produced by Seth Rogen, Evan Goldberg and James Weaver, under their Point Grey Pictures banner (Neighbors, This Is the End), alongside Jon Hurwitz & Hayden Schlossberg (Harold & Kumar series) and DMG Entertainment's Chris Fenton (47 Ronin). Good Universe's Nathan Kahane and Joseph Drake (Don't Breathe, Juno) executive produce with Chris Cowles (Collide) of DMG and Josh Fagen, Dave Stassen and Jonathan McCoy. The film is written by brothers Brian & Jim Kehoe, Hurwitz & Schlossberg and Eben Russell.


imdb.com
Blockers (2018)

Capa
Sinopse:Three parents try to stop their daughters from losing their virginity on prom night.
Pontuação:6.5
Duração:102 minutos
Idioma:English
Realizador:Kay Cannon
Actores:Leslie Mann, John Cena, Ike Barinholtz, Kathryn Newton, Geraldine Viswanathan
  
Fonte:http://www.imdb.com/title/tt2531344
Última Actualização:Quinta Junho 28, 2018 21:39


Code: Select all

Video
ID : 1
Format : AVC
Format/Info : Advanced Video Codec
Format profile : High@L4.1
Format settings : CABAC / 4 Ref Frames
Format settings, CABAC : Yes
Format settings, ReFrames : 4 frames
Codec ID : V_MPEG4/ISO/AVC
Duration : 1 h 41 min
Bit rate mode : Variable
Bit rate : 28.8 Mb/s
Maximum bit rate : 35.0 Mb/s
Width : 1 920 pixels
Height : 1 080 pixels
Display aspect ratio : 16:9
Frame rate mode : Constant
Frame rate : 23.976 (24000/1001) FPS
Color space : YUV
Chroma subsampling : 4:2:0
Bit depth : 8 bits
Scan type : Progressive
Bits/(Pixel*Frame) : 0.580
Stream size : 20.5 GiB (81%)
Title : Blockers.2018.1080p.BluRay.REMUX.AVC.DTS-HD.MA.5.1-FGT
Language : English
Default : No
Forced : No

Audio #1
ID : 2
Format : DTS
Format/Info : Digital Theater Systems
Format profile : MA / Core
Codec ID : A_DTS
Duration : 1 h 41 min
Bit rate mode : Variable / Constant
Bit rate : 3 362 kb/s / 1 509 kb/s
Channel(s) : 6 channels
Channel positions : Front: L C R, Side: L R, LFE
Sampling rate : 48.0 kHz
Frame rate : 93.750 FPS (512 SPF)
Bit depth : 24 bits
Compression mode : Lossless / Lossy
Stream size : 2.39 GiB (9%)
Title : Blockers.2018.1080p.BluRay.REMUX.AVC.DTS-HD.MA.5.1-FGT
Language : English
Default : Yes
Forced : No

Audio #2
ID : 3
Format : DTS
Format/Info : Digital Theater Systems
Codec ID : A_DTS
Duration : 1 h 41 min
Bit rate mode : Constant
Bit rate : 1 509 kb/s
Channel(s) : 6 channels
Channel positions : Front: L C R, Side: L R, LFE
Sampling rate : 48.0 kHz
Frame rate : 93.750 FPS (512 SPF)
Bit depth : 24 bits
Compression mode : Lossy
Stream size : 1.07 GiB (4%)
Title : Blockers.2018.1080p.BluRay.REMUX.AVC.DTS-HD.MA.5.1-FGT
Language : English
Default : No
Forced : No

Audio #3
ID : 4
Format : DTS
Format/Info : Digital Theater Systems
Codec ID : A_DTS
Duration : 1 h 41 min
Bit rate mode : Constant
Bit rate : 768 kb/s
Channel(s) : 6 channels
Channel positions : Front: L C R, Side: L R, LFE
Sampling rate : 48.0 kHz
Frame rate : 93.750 FPS (512 SPF)
Bit depth : 24 bits
Compression mode : Lossy
Stream size : 560 MiB (2%)
Title : Blockers.2018.1080p.BluRay.REMUX.AVC.DTS-HD.MA.5.1-FGT
Language : Spanish
Default : No
Forced : No

Audio #4
ID : 5
Format : DTS
Format/Info : Digital Theater Systems
Codec ID : A_DTS
Duration : 1 h 41 min
Bit rate mode : Constant
Bit rate : 768 kb/s
Channel(s) : 6 channels
Channel positions : Front: L C R, Side: L R, LFE
Sampling rate : 48.0 kHz
Frame rate : 93.750 FPS (512 SPF)
Bit depth : 24 bits
Compression mode : Lossy
Stream size : 560 MiB (2%)
Title : Blockers.2018.1080p.BluRay.REMUX.AVC.DTS-HD.MA.5.1-FGT
Language : French
Default : No
Forced : No

Audio #5
ID : 6
Format : AC-3
Format/Info : Audio Coding 3
Codec ID : A_AC3
Duration : 1 h 41 min
Bit rate mode : Constant
Bit rate : 192 kb/s
Channel(s) : 2 channels
Channel positions : Front: L R
Sampling rate : 48.0 kHz
Frame rate : 31.250 FPS (1536 SPF)
Bit depth : 16 bits
Compression mode : Lossy
Stream size : 140 MiB (1%)
Title : Blockers.2018.1080p.BluRay.REMUX.AVC.DTS-HD.MA.5.1-FGT
Language : English
Service kind : Complete Main
Default : No
Forced : No

Text #1
ID : 7
Format : PGS
Muxing mode : zlib
Codec ID : S_HDMV/PGS
Codec ID/Info : Picture based subtitle format used on BDs/HD-DVDs
Duration : 1 h 34 min
Bit rate : 68.3 kb/s
Count of elements : 4467
Stream size : 46.1 MiB (0%)
Title : English-PGS
Language : English
Default : Yes
Forced : No

Text #2
ID : 8
Format : PGS
Muxing mode : zlib
Codec ID : S_HDMV/PGS
Codec ID/Info : Picture based subtitle format used on BDs/HD-DVDs
Duration : 1 h 41 min
Bit rate : 49.4 kb/s
Count of elements : 3334
Stream size : 35.7 MiB (0%)
Title : Spanish-PGS
Language : Spanish
Default : No
Forced : No

Text #3
ID : 9
Format : PGS
Muxing mode : zlib
Codec ID : S_HDMV/PGS
Codec ID/Info : Picture based subtitle format used on BDs/HD-DVDs
Duration : 1 h 41 min
Bit rate : 44.0 kb/s
Count of elements : 4104
Stream size : 31.8 MiB (0%)
Title : French-PGS
Language : French
Default : No
Forced : No

Text #4
ID : 10
Format : PGS
Muxing mode : zlib
Codec ID : S_HDMV/PGS
Codec ID/Info : Picture based subtitle format used on BDs/HD-DVDs
Duration : 1 h 40 min
Bit rate : 773 b/s
Count of elements : 66
Stream size : 568 KiB (0%)
Title : Spanish-FORCED-PGS
Language : Spanish
Default : No
Forced : No

Text #5
ID : 11
Format : PGS
Muxing mode : zlib
Codec ID : S_HDMV/PGS
Codec ID/Info : Picture based subtitle format used on BDs/HD-DVDs
Duration : 1 h 40 min
Bit rate : 663 b/s
Count of elements : 62
Stream size : 488 KiB (0%)
Title : French-FORCED-PGS
Language : French
Default : No
Forced : No

Menu
00:00:00.000 : en:Chapter 01
00:02:50.086 : en:Chapter 02
00:10:02.143 : en:Chapter 03
00:14:50.139 : en:Chapter 04
00:22:11.955 : en:Chapter 05
00:26:09.109 : en:Chapter 06
00:32:02.962 : en:Chapter 07
00:35:18.449 : en:Chapter 08
00:40:06.529 : en:Chapter 09
00:44:33.545 : en:Chapter 10
00:49:58.245 : en:Chapter 11
00:55:14.769 : en:Chapter 12
00:59:26.521 : en:Chapter 13
01:05:34.472 : en:Chapter 14
01:10:20.633 : en:Chapter 15
01:15:47.000 : en:Chapter 16
01:22:48.213 : en:Chapter 17
01:26:38.818 : en:Chapter 18
01:31:15.970 : en:Chapter 19
01:34:08.559 : en:Chapter 20


Imagem Imagem
Imagem Imagem
Imagem Imagem

phpBB [video]


Links:

ed2k: Blockers.2018.1080p.BluRay.REMUX.AVC.DTS-HD.MA.5.1-FGT.mkv  [25.27 Gb]
ed2k: Blockers.2018.1080p.BluRay.REMUX.AVC.DTS-HD.MA.5.1-FGT.nfo  [5.5 Kb]
ed2k: Blockers.2018.1080p.BluRay.REMUX.AVC.DTS-HD.MA.5.1-FGT.srt  [117.9 Kb]
Não tem Permissão para ver os ficheiros anexados nesta mensagem.
Imagem

Responder

Voltar para “Alta Definição // High Definition (Com Legendas/With Subtitles)”

Quem está ligado:

Utilizadores neste fórum: Nenhum utilizador registado e 1 visitante