211 (2018) [REMUX] *1080p BluRay* - FGT

1080p (a1080p, 1080p)
Qualquer Alta Resolução // Any High Definition release, be it full (BD, HDDVD, HDTV stream, BDRip, HDDVDRip, HDTVRip)

Moderador: Moderador

Responder
Avatar do Utilizador
Lost_Rider34
Administrador
Administrador
Mensagens: 10614
Registado: 15 out 2008, 14:07
Localização: Aqui
Contacto:

211 (2018) [REMUX] *1080p BluRay* - FGT

Mensagem por Lost_Rider34 » 11 ago 2018, 02:50

Imagem

O oficial Mike Chandler (Nicolas Cage) e um jovem passageiro civil encontram-se despreparados e desarmados quando o destino os coloca diretamente na mira de um ousado roubo a banco em andamento por uma equipe destemida de homens altamente treinados e fortemente armados. Inspirado por um dos eventos mais longos e sangrentos da vida real na história da polícia.

Inspired by one of the longest and bloodiest real-life events in police history. Officer Mike Chandler (Nicolas Cage) and a young civilian passenger find themselves under-prepared and outgunned when fate puts them squarely in the crosshairs of a daring bank heist in progress by a fearless team of highly trained and heavily armed men.


imdb.com
211 (2018)

Capa
Sinopse:Bank heist movie in the vein of "End of Watch" meets "Black Hawk Down".
Pontuação:4.2
Duração:86 minutos
Idioma:English
Realizador:York Alec Shackleton
Actores:Nicolas Cage, Sophie Skelton, Michael Rainey Jr., Dwayne Cameron, Weston Cage
  
Fonte:http://www.imdb.com/title/tt4976192
Última Actualização:Segunda Junho 11, 2018 18:32


Code: Select all

Video
ID : 1
Format : AVC
Format/Info : Advanced Video Codec
Format profile : High@L4.1
Format settings : CABAC / 4 Ref Frames
Format settings, CABAC : Yes
Format settings, ReFrames : 4 frames
Codec ID : V_MPEG4/ISO/AVC
Duration : 1 h 27 min
Bit rate mode : Variable
Bit rate : 29.1 Mb/s
Maximum bit rate : 35.0 Mb/s
Width : 1 920 pixels
Height : 1 080 pixels
Display aspect ratio : 16:9
Frame rate mode : Constant
Frame rate : 23.976 (24000/1001) FPS
Standard : NTSC
Color space : YUV
Chroma subsampling : 4:2:0
Bit depth : 8 bits
Scan type : Progressive
Bits/(Pixel*Frame) : 0.585
Stream size : 17.7 GiB (89%)
Title : 211.2018.1080p.BluRay.REMUX.AVC.DTS-HD.MA.5.1-FGT
Language : English
Default : No
Forced : No
Color range : Limited
Color primaries : BT.709
Transfer characteristics : BT.709
Matrix coefficients : BT.709

Audio #1
ID : 2
Format : DTS
Format/Info : Digital Theater Systems
Format profile : MA / Core
Codec ID : A_DTS
Duration : 1 h 27 min
Bit rate mode : Variable / Constant
Bit rate : 1 959 kb/s / 1 509 kb/s
Channel(s) : 6 channels
Channel positions : Front: L C R, Side: L R, LFE
Sampling rate : 48.0 kHz
Frame rate : 93.750 FPS (512 SPF)
Bit depth : 16 bits
Compression mode : Lossless / Lossy
Stream size : 1.19 GiB (6%)
Title : 211.2018.1080p.BluRay.REMUX.AVC.DTS-HD.MA.5.1-FGT
Language : English
Default : Yes
Forced : No

Audio #2
ID : 3
Format : DTS
Format/Info : Digital Theater Systems
Codec ID : A_DTS
Duration : 1 h 27 min
Bit rate mode : Constant
Bit rate : 1 509 kb/s
Channel(s) : 6 channels
Channel positions : Front: L C R, Side: L R, LFE
Sampling rate : 48.0 kHz
Frame rate : 93.750 FPS (512 SPF)
Bit depth : 16 bits
Compression mode : Lossy
Stream size : 940 MiB (5%)
Title : 211.2018.1080p.BluRay.REMUX.AVC.DTS-HD.MA.5.1-FGT
Language : English
Default : No
Forced : No

Text
ID : 4
Format : PGS
Muxing mode : zlib
Codec ID : S_HDMV/PGS
Codec ID/Info : Picture based subtitle format used on BDs/HD-DVDs
Duration : 1 h 21 min
Bit rate : 40.6 kb/s
Count of elements : 2012
Stream size : 23.7 MiB (0%)
Title : English-PGS
Language : English
Default : Yes
Forced : No

Menu
00:00:00.000 : en:Chapter 01
00:05:50.641 : en:Chapter 02
00:10:14.530 : en:Chapter 03
00:16:36.286 : en:Chapter 04
00:22:31.266 : en:Chapter 05
00:27:17.177 : en:Chapter 06
00:32:44.337 : en:Chapter 07
00:38:47.908 : en:Chapter 08
00:44:38.884 : en:Chapter 09
00:49:44.314 : en:Chapter 10
00:54:29.391 : en:Chapter 11
01:00:31.836 : en:Chapter 12
01:05:32.887 : en:Chapter 13
01:11:29.243 : en:Chapter 14
01:16:34.464 : en:Chapter 15
01:22:27.484 : en:Chapter 16


Imagem Imagem
Imagem Imagem
Imagem Imagem

phpBB [video]


LINKS:

ed2k: 211.2018.1080p.BluRay.REMUX.AVC.DTS-HD.MA.5.1-FGT.mkv  [19.82 Gb]
ed2k: 211.2018.1080p.BluRay.REMUX.AVC.DTS-HD.MA.5.1-FGT.nfo  [2.7 Kb]
ed2k: 211.2018.1080p.BluRay.REMUX.AVC.DTS-HD.MA.5.1-FGT.srt  [73.1 Kb]
Não tem Permissão para ver os ficheiros anexados nesta mensagem.
Imagem

liramedeiros
Utilizador
Utilizador
Mensagens: 62
Registado: 14 abr 2009, 12:47

Re: 211 (2018) [REMUX] *1080p BluRay* - FGT

Mensagem por liramedeiros » 11 ago 2018, 21:22

nao deve sair do ar temos saudades
bravo_2

Responder

Voltar para “Alta Definição // High Definition (Com Legendas/With Subtitles)”