Of Love and Shadows (1994) *DVDRip* - NoGRP

Filmes lançados no ano de 2012 e anos anteriores. / Movies launched in the year of 2012 and previous. (Retail DVD)

Moderador: Moderador

Responder
Avatar do Utilizador
Lost_Rider34
Administrador
Administrador
Mensagens: 10616
Registado: 15 out 2008, 14:07
Localização: Aqui
Contacto:

Of Love and Shadows (1994) *DVDRip* - NoGRP

Mensagem por Lost_Rider34 » 25 out 2017, 11:58

Imagem

Irene é uma alienada repórter chilena que trabalha para uma revista de moda e mora com a mãe Beatriz, dona de um asilo. Apesar de sua profissão e de namorar um jovem militar, ela ignora a repressão política que domina seu país imposta pelo General Pinochet. Quem lhe abre os olhos para toda essa selvageria e violência, é Francisco, um fotógrafo de origem espanhola que luta contra o regime militar. Juntos, descobrem uma mina abandonada onde os militares escondem cadáveres. Agora, apaixonados e correndo perigo, eles terão que enfrentar uma arriscada fuga do país com um deles gravemente ferido.

This film is set in Chile during the dictatorial Pinochet regime of the early 1970s. Journalist Jennifer Connelly, enjoying the romantic favors of an army officer, turns a blind eye to the political turmoil all around her. Her attitude abruptly changes when she falls in love with a charismatic anarchist.


imdb.com
Von Liebe und Schatten (1994)

Capa
Sinopse:Irene is a magazine editor living under the shadow of the Pinochet dictatorship in Chile. Francisco is a handsome photographer and he comes to Irene for a job. As a sympathizer with the ...
Pontuação:5.1
Duração:103 minutos
Idioma:English
Realizador:Betty Kaplan
Actores:Antonio Banderas, Jennifer Connelly, Stefania Sandrelli, Diego Wallraff, Camilo Gallardo
  
Fonte:http://www.imdb.com/title/tt0110712
Última Actualização:Segunda Março 12, 2018 04:33


Código: Selecionar todos

General
Complete name                            : F:\Of.Love.and.Shadows.(1994).DVDRip.XviD-NoGRP.[TheRostrum.net].avi
Format                                   : AVI
Format/Info                              : Audio Video Interleave
Format profile                           : OpenDML
File size                                : 1.36 GiB
Duration                                 : 1 h 43 min
Overall bit rate                         : 1 884 kb/s
Writing library                          : MPlayer

Video
ID                                       : 0
Format                                   : MPEG-4 Visual
Format profile                           : Simple@L3
Format settings                          : BVOP2
Format settings, BVOP                    : 2
Format settings, QPel                    : No
Format settings, GMC                     : No warppoints
Format settings, Matrix                  : Default (H.263)
Muxing mode                              : Packed bitstream
Codec ID                                 : XVID
Codec ID/Hint                            : XviD
Duration                                 : 1 h 43 min
Bit rate                                 : 1 687 kb/s
Width                                    : 800 pixels
Height                                   : 432 pixels
Display aspect ratio                     : 1.85:1
Frame rate                               : 23.976 (24000/1001) FPS
Color space                              : YUV
Chroma subsampling                       : 4:2:0
Bit depth                                : 8 bits
Scan type                                : Progressive
Compression mode                         : Lossy
Bits/(Pixel*Frame)                       : 0.204
Stream size                              : 1.22 GiB (90%)
Writing library                          : XviD 1.1.0 Beta2 (UTC 2005-04-04)

Audio
ID                                       : 1
Format                                   : AC-3
Format/Info                              : Audio Coding 3
Mode                                     : Dolby Digital
Format settings, Endianness              : Big
Codec ID                                 : 2000
Duration                                 : 1 h 43 min
Bit rate mode                            : Constant
Bit rate                                 : 192 kb/s
Channel(s)                               : 2 channels
Channel positions                        : Front: L R
Sampling rate                            : 48.0 kHz
Frame rate                               : 31.250 FPS (1536 SPF)
Bit depth                                : 16 bits
Compression mode                         : Lossy
Delay relative to video                  : 23 ms
Stream size                              : 142 MiB (10%)
Alignment                                : Split accross interleaves
Interleave, duration                     : 500  ms (11.99 video frames)
Interleave, preload duration             : 500  ms
Service kind                             : Complete Main




Imagem Imagem
Imagem Imagem


LINKS:

ed2k: Of.Love.and.Shadows.(1994).DVDRip.XviD-NoGRP.[TheRostrum.net].avi  [1.36 Gb]
ed2k: Of.Love.and.Shadows.(1994).DVDRip.XviD-NoGRP.[TheRostrum.net].srt  [70.0 Kb]


* powered by MoRsE
Não tem Permissão para ver os ficheiros anexados nesta mensagem.
Imagem

Imagem

Avatar do Utilizador
MoRsE
Moderador Global
Moderador Global
Mensagens: 1781
Registado: 29 jul 2009, 02:32
Localização: Azores

Re: Of Love and Shadows (1994) *DVDRip* - NoGRP

Mensagem por MoRsE » 25 out 2017, 12:24

Screens e nfo adicionadas ao post. ^^
Imagem

Avatar do Utilizador
dhbv
Utilizador
Utilizador
Mensagens: 386
Registado: 20 dez 2012, 13:31
Localização: Recife (PE)

Re: Of Love and Shadows (1994) *DVDRip* - NoGRP

Mensagem por dhbv » 25 out 2017, 12:33

Obrigado!

Avatar do Utilizador
tainacan
Utilizador
Utilizador
Mensagens: 479
Registado: 05 mai 2011, 06:04

Re: Of Love and Shadows (1994) *DVDRip* - NoGRP

Mensagem por tainacan » 25 out 2017, 14:48

:thanxu2:

na :cavalinho:

AnaMMB
Utilizador
Utilizador
Mensagens: 1
Registado: 19 dez 2018, 13:24

Re: Of Love and Shadows (1994) *DVDRip* - NoGRP

Mensagem por AnaMMB » 19 dez 2018, 14:37

Boa tarde. Sou nova aqui no fórum. Não estou a conseguir fazer este download :\
Obrigada desde já pela partilha!

Responder

Voltar para “Filmes Arquivados // Filed Movies (Com Legendas/With Subtitles)”