The Wolverine (2013) [EXTENDED] *BDRip* - TODE

Filmes lançados em 2013 e anos seguintes. / Movies launched in 2013 and following years. (Retail DVD)

Moderador: Moderador

Responder
Avatar do Utilizador
MoRsE
Moderador Global
Moderador Global
Mensagens: 1799
Registado: 29 jul 2009, 02:32
Localização: Azores

The Wolverine (2013) [EXTENDED] *BDRip* - TODE

Mensagem por MoRsE » 11 nov 2013, 03:24




Synopsis
O novo filme protagonizado pelo mutante Logan, Wolverine - Imortal, mostra o X-Men mais famoso da série numa batalha no Japão. Com direção de James Mangold, o filme é baseado na Banda Desenhada "Eu, Wolverine". Convocado por um velho amigo para se despedir, Logan envolve-se numa guerra familiar e corre o risco de perder os seus poderes, tornando-se mortal. Além de Hugh Jackman como Wolverine, completam o elenco os atores Rila Fukushima, como a espadachim Yukio; Svetlana Khodchenkova como a vilã Víbora e Will Yun Lee como Harada, chefe de uma das famílias mais poderosas do Japão.

In modern day Japan, Wolverine is out of his depth in an unknown world as he faces his ultimate nemesis in a life-or-death battle that will leave him forever changed. Vulnerable for the first time and pushed to his physical and emotional limits, he confronts not only lethal samurai steel but also his inner struggle against his own immortality, emerging more powerful than we have ever seen him before.


imdb.com
The Wolverine (2013)

Capa
Sinopse:When Wolverine is summoned to Japan by an old acquaintance, he is embroiled in a conflict that forces him to confront his own demons.
Pontuação:6.7
Duração:126 minutos
Idioma:English, Japanese
Realizador:James Mangold
Actores:Hugh Jackman, Tao Okamoto, Rila Fukushima, Hiroyuki Sanada, Svetlana Khodchenkova
  
Fonte:http://www.imdb.com/title/tt1430132
Última Actualização:Segunda Março 12, 2018 10:07


Código: Selecionar todos

 
http://www.imdb.com/title/tt1430132/

Summoned to Japan by an old acquaintance, Wolverine becomes embroiled in a conflict
that forces him to confront his own demons.

Director:
James Mangold

Writers:
Mark Bomback (screenplay), Scott Frank (screenplay)

Stars:
Hugh Jackman, Tao Okamoto, Rila Fukushima

Genres:
 Action |  Adventure |  Fantasy |  Sci-Fi

Country:
USA 

Thanks : SPARKS

Format                                   : AVI
Format/Info                              : Audio Video Interleave
File size                                : 692 MiB
Duration                                 : 2h 18mn
Overall bit rate                         : 700 Kbps

Video
ID                                       : 0
Format                                   : MPEG-4 Visual
Format profile                           : Advanced Simple@L5
Format settings, BVOP                    : 2
Format settings, QPel                    : No
Format settings, GMC                     : No warppoints
Format settings, Matrix                  : Default (H.263)
Codec ID                                 : XVID
Codec ID/Hint                            : XviD
Duration                                 : 2h 18mn
Bit rate                                 : 566 Kbps
Width                                    : 720 pixels
Height                                   : 304 pixels
Display aspect ratio                     : 2.35:1
Frame rate                               : 23.976 fps
Color space                              : YUV
Chroma subsampling                       : 4:2:0
Bit depth                                : 8 bits
Scan type                                : Progressive
Compression mode                         : Lossy
Bits/(Pixel*Frame)                       : 0.108
Stream size                              : 560 MiB (81%)
Writing library                          : XviD 1.2.1 (UTC 2008-12-04)

Audio
ID                                       : 1
Format                                   : MPEG Audio
Format version                           : Version 1
Format profile                           : Layer 3
Mode                                     : Joint stereo
Mode extension                           : MS Stereo
Codec ID                                 : 55
Codec ID/Hint                            : MP3
Duration                                 : 2h 18mn
Bit rate mode                            : Constant
Bit rate                                 : 128 Kbps
Channel(s)                               : 2 channels
Sampling rate                            : 48.0 KHz
Compression mode                         : Lossy
Stream size                              : 127 MiB (18%)
Alignment                                : Aligned on interleaves
Interleave, duration                     : 167 ms (4.00 video frames)
Interleave, preload duration             : 216 ms
Title                                    : T2_Audio - English
Writing library                          : LAME3.99r
Encoding settings                        : -m j -V 4 -q 2 -lowpass 17 -b 128


screens
 
http://i.imgur.com/1L8vgT5.jpg
http://i.imgur.com/NyTTI66.jpg
http://i.imgur.com/LQmGqD9.jpg
http://i.imgur.com/er9zWaA.jpg
http://i.imgur.com/yRZqLEC.jpg
http://i.imgur.com/5OUXqwr.jpg
http://i.imgur.com/PPjw2bs.jpg
http://i.imgur.com/eU3SZu3.jpg      



Imagem Imagem

Imagem Imagem

Imagem Imagem

Imagem Imagem


ed2k: The.Wolverine.(2013).EXTENDED.BRRip.XviD-TODE.[TheRostrum.net].avi  [692.31 Mb]

The.Wolverine.(2013).EXTENDED.BRRip.XviD-TODE.rar
Não tem Permissão para ver os ficheiros anexados nesta mensagem.
Imagem

Avatar do Utilizador
Barefaced
Administrador
Administrador
Mensagens: 37002
Registado: 06 jul 2007, 17:43
Localização: @ Home
Contacto:

Re: The Wolverine (2013) [EXTENDED] *BDRip* - TODE

Mensagem por Barefaced » 11 nov 2013, 03:42

...::: Adicionadas legendas :portugal: :::...
Imagem
Imagem

Responder

Voltar para “Filmes Recentes // Recent Movies (Com Legendas/With Subtitles)”