Warm Bodies (2013) *BDRip* - MiLLENiUM

Filmes lançados em 2013 e anos seguintes. / Movies launched in 2013 and following years. (Retail DVD)

Moderador: Moderador

Responder
Avatar do Utilizador
quiZZical
eMulePoster
eMulePoster
Mensagens: 4838
Registado: 28 jul 2011, 19:30

Warm Bodies (2013) *BDRip* - MiLLENiUM

Mensagem por quiZZical » 06 jun 2013, 01:58




Synopsis
Um vírus misterioso devastou a civilização, transformando as suas vítimas em monstros comedores de carne, sem memória das suas vidas passadas. O que resta da humanidade está escondida em bunkers fortificados, onde os sobreviventes vivem aterrorizados pelos seus antigos entes queridos. Mas tudo se altera quando um grupo de zombies esfomeados se cruza com um grupo de humanos em busca de mantimentos. R, um zombie com alma, fica de tal forma cativado pela bela humana Julie que acaba por salvá-la de ser comida pelos seus companheiros. R resolve proteger Julie e esconde-la no seu esconderijo, partilhando com ela os tesouros que vem recolhendo durante as suas saídas - discos em vinyl, instrumentos musicais, e outros objetos de uma vida normal. Com o passar do tempo, Julie começa a despertar sentimentos há muito tempo esquecidos em R, ao mesmo tempo que se apercebe que existe em R mais do que um olhar vago. Confusa com os seus sentimentos, Julie decide regressar à sua cidade, onde o seu pai (John Malkovich), um cruel caçador de zombies, lidera uma força armada de segurança. Enquanto isso, o enamorado R começa a mudar de uma maneira que não imaginava ser possível e acredita que a sua relação com Julie pode ser a salvação da raça humana. Mas quando ele aparece à porta de Julie, desencadeia uma guerra entre humanos e zombie que ameaça destruir qualquer hipótese de ficarem juntos.

With much of the future world's population rendered into an undead horde, R is a young, and oddly introspective, zombie. On a feeding encounter with a human gathering party, R meets Julie and feels an urge to protect her. What happens with that is the beginnings of a strangely warm relationship that causes R to start to regain his humanity. As this change spreads throughout the undead population, Julie and R eventually find they are facing a larger issue even as their friendship is challenged. Caught between the paranoid human forces and the ferocious Bonie zombies who are a mutual threat, R and Julie must find a way to bridge the sides for fight for a better world no one thought possible.


imdb.com
Warm Bodies (2013)

Capa
Sinopse:After a highly unusual zombie saves a still-living girl from an attack, the two form a relationship that sets in motion events that might transform the entire lifeless world.
Pontuação:6.9
Duração:98 minutos
Idioma:English
Realizador:Jonathan Levine
Actores:Nicholas Hoult, Teresa Palmer, Analeigh Tipton, Rob Corddry, Dave Franco
  
Fonte:http://www.imdb.com/title/tt1588173
Última Actualização:Segunda Março 12, 2018 08:47


NFO:
General

Unique ID : 202251244065977413439260411959400203992 (0x98282C379D8B19B8913300A5ACEC06D8)
Complete name : warm.bodies.2013 BRrip x264 Ac3-MiLLENiUM.mkv
Source : 1080p sparks[thanks]
Format : Matroska
Format version : Version 4 / Version 2
File size : 1.29 GiB
Duration : 1h 37mn
Overall bit rate mode : Variable
Overall bit rate : 1 896 Kbps
Encoded date : UTC 2013-05-22 16:37:44
Writing application : mkvmerge v6.2.0 ('Promised Land') built on Apr 28 2013 12:22:01
Writing library : libebml v1.3.0 + libmatroska v1.4.0


Video

ID : 2
Format : AVC
Format/Info : Advanced Video Codec
Format profile : High@L4.1
Format settings, CABAC : Yes
Format settings, ReFrames : 3 frames
Format settings, GOP : M=4, N=23
Codec ID : V_MPEG4/ISO/AVC
Duration : 1h 37mn
Bit rate mode : Variable
Bit rate : 1 510 Kbps
Maximum bit rate : 40.0 Mbps
Width : 720 pixels
Height : 304 pixels
Display aspect ratio : 2.35:1
Frame rate : 23.976 fps
Color space : YUV
Chroma subsampling : 4:2:0
Bit depth : 8 bits
Scan type : Progressive
Bits/(Pixel*Frame) : 0.288
Stream size : 1.01 GiB (78%)
Writing library : x264 core 132 r2310 76a5c3a
Language : English
Default : Yes
Forced : No
Color primaries : BT.709-5, BT.1361, IEC 61966-2-4, SMPTE RP177
Transfer characteristics : BT.709-5, BT.1361
Matrix coefficients : BT.709-5, BT.1361, IEC 61966-2-4 709, SMPTE RP177


Audio

ID : 1
Format : AC-3
Format/Info : Audio Coding 3
Mode extension : CM (complete main)
Codec ID : A_AC3
Duration : 1h 37mn
Bit rate mode : Constant
Bit rate : 384 Kbps
Channel(s) : 6 channels
Channel positions : Front: L C R, Side: L R, LFE
Sampling rate : 48.0 KHz
Bit depth : 16 bits
Compression mode : Lossy
Stream size : 269 MiB (20%)
Default : Yes
Forced : No


Screens :

Imagem

Imagem

Imagem

Imagem

Imagem

Imagem

Imagem



Imagem



GREETZ TO INFERNO,DEVILDEEDS,OFFLINE,26K,FooKaS AND ALL THAT HELP THE CAUSE :)

RESPECT TO TRUE FRIENDS !!!



Imagem

Imagem

Imagem

Imagem

Imagem

Imagem

Imagem


ed2k: Warm.Bodies.(2013).BRRip.x264.AC3-MiLLENiUM.[TheRostrum.net].mkv  [1.29 Gb]

Warm.Bodies.(2013).BRRip.x264.AC3-MiLLENiUM.rar
Não tem Permissão para ver os ficheiros anexados nesta mensagem.

Avatar do Utilizador
Barefaced
Administrador
Administrador
Mensagens: 37261
Registado: 06 jul 2007, 17:43
Localização: @ Home
Contacto:

Re: Warm Bodies (2013) *BDRip* - MiLLENiUM

Mensagem por Barefaced » 17 set 2013, 03:04

...::: Adicionada legenda :portugal: :::...
Imagem
Imagem

Responder

Voltar para “Filmes Recentes // Recent Movies (Com Legendas/With Subtitles)”