Gangster Squad (2013) *BDRip* - playXD

Filmes lançados em 2013 e anos seguintes. / Movies launched in 2013 and following years. (Retail DVD)

Moderador: Moderador

Responder
Avatar do Utilizador
quiZZical
eMulePoster
eMulePoster
Mensagens: 4838
Registado: 28 jul 2011, 19:30

Gangster Squad (2013) *BDRip* - playXD

Mensagem por quiZZical » 05 abr 2013, 19:13




Synopsis
Los Angeles, 1949. Cruel, nascido em Brooklyn e rei de um gang, Mickey Cohen comanda a vida na cidade, colhendo os ganhos ilícitos de drogas, de armas, da prostituição e - se tiver oportunidade - de todas as apostas colocadas a oeste de Chicago. Mickey faz tudo isso com a protecção não só dos seus guarda-costas, como também da polícia e dos políticos que estão sob o seu controlo. É o suficiente para intimidar até o polícia mais corajoso, excepto talvez para a pequena e secreta equipa da LAPD liderada pelo Sargento John O'Mara e Jerry Wooters, que se juntam para derrubar o mundo de Cohen. Sob a direcção de Ruben Fleischer, "The Gangster Squad" mostra-nos uma série de acções que envolvem os esforços da Polícia para recuperarem a sua cidade do chefe da Máfia mais perigoso de todos os tempos. O filme conta ainda com a participação de Nick Nolte como chefe da Polícia "Whiskey Bill" Parker; e Emma Stone como Grace Faraday, a namorada de Mickey e alvo da atenção de Wooters.

Los Angeles, 1949. Ruthless, Brooklyn-born mob king Mickey Cohen (Sean Penn) runs the show in this town, reaping the ill-gotten gains from the drugs, the guns, the prostitutes and—if he has his way—every wire bet placed west of Chicago. And he does it all with the protection of not only his own paid goons, but also the police and the politicians he has under his thumb. It’s enough to intimidate even the bravest, street-hardened cop…except, perhaps, for the small, secret crew of LAPD outsiders led by Sgt. John O’Mara (Josh Brolin) and Sgt. Jerry Wooters (Ryan Gosling), who come together to try to tear Cohen’s world apart.


imdb.com
Gangster Squad (2013)

Capa
Sinopse:It's 1949 Los Angeles, the city is run by gangsters and a malicious mobster, Mickey Cohen. Determined to end the corruption, John O'Mara assembles a team of cops, ready to take down the ruthless leader and restore peace to the city.
Pontuação:6.7
Duração:113 minutos
Idioma:English
Realizador:Ruben Fleischer
Actores:Sean Penn, Holt McCallany, Wade Williams, James Landry Hébert, Ambyr Childers
  
Fonte:http://www.imdb.com/title/tt1321870
Última Actualização:Segunda Março 12, 2018 08:47


Código: Selecionar todos

General
Complete name : E:Gangster.Squad.2013.BRRip.XviD-playXD.avi
Format : AVI
Format/Info : Audio Video Interleave
File size : 704 MiB
Duration : 1h 52mn
Overall bit rate : 872 Kbps
Writing application : VirtualDubMod 1.5.10.2 (build 2540/release)
Writing library : VirtualDubMod build 2540/release

Video
ID : 0
Format : MPEG-4 Visual
Format profile : Advanced Simple@L5
Format settings, BVOP : 3
Format settings, QPel : Yes
Format settings, GMC : No warppoints
Format settings, Matrix : Default (H.263)
Codec ID : XVID
Codec ID/Hint : XviD
Duration : 1h 52mn
Bit rate : 735 Kbps
Width : 640 pixels
Height : 272 pixels
Display aspect ratio : 2.35:1
Frame rate : 23.976 fps
Color space : YUV
Chroma subsampling : 4:2:0
Bit depth : 8 bits
Scan type : Progressive
Compression mode : Lossy
Bits/(Pixel*Frame) : 0.176
Stream size : 593 MiB (84%)
Writing library : XviD 1.2.1 (UTC 2008-12-04)

Audio
ID : 1
Format : MPEG Audio
Format version : Version 1
Format profile : Layer 3
Mode : Joint stereo
Mode extension : MS Stereo
Codec ID : 55
Codec ID/Hint : MP3
Duration : 1h 52mn
Bit rate mode : Constant
Bit rate : 128 Kbps
Channel(s) : 2 channels
Sampling rate : 48.0 KHz
Compression mode : Lossy
Stream size : 103 MiB (15%)
Alignment : Aligned on interleaves
Interleave, duration : 42 ms (1.00 video frame)
Interleave, preload duration : 504 ms
Writing library : LAME3.99r
Encoding settings : -m j -V 4 -q 2 -lowpass 17 -b 128



Imagem

Imagem

Imagem


ed2k: Gangster.Squad.(2013).BDRip.XviD-playXD.avi  [704.33 Mb]

Gangster.Squad.(2013).BDRip.XviD-playXD.rar
Não tem Permissão para ver os ficheiros anexados nesta mensagem.

Responder

Voltar para “Filmes Recentes // Recent Movies (Com Legendas/With Subtitles)”