The Entity (1981) [UNCUT] *DVDRip*

Filmes lançados no ano de 2012 e anos anteriores. / Movies launched in the year of 2012 and previous. (Retail DVD)

Moderador: Moderador

Responder
Avatar do Utilizador
arf100c
eMuleCoop
eMuleCoop
Mensagens: 7341
Registado: 08 jun 2009, 15:48

The Entity (1981) [UNCUT] *DVDRip*

Mensagem por arf100c » 25 jan 2013, 13:22

Imagem


Sinopse
Los Angeles, 1976. Uma entidade invisível estupra várias vezes a indefesa Carla Moran (Barbara Hershey), mas ninguém acredita nas suas histórias. Ao ser submetida a testes conduzidos por especialistas em fenômenos paranormais e psicólogos, liderados pelo investigador Phil Sneiderman (Ron Silver), fica claro que o que diz não é produto de uma mente doentia.


imdb.com
The Entity (1982)

Capa
Sinopse:Supposedly based partially on a true story, a woman is tormented and sexually molested by an invisible demon.
Pontuação:6.6
Duração:125 minutos
Idioma:English
Realizador:Sidney J. Furie
Actores:Barbara Hershey, Ron Silver, David Labiosa, George Coe, Margaret Blye
  
Fonte:http://www.imdb.com/title/tt0082334
Última Actualização:Segunda Março 12, 2018 03:54


Código: Selecionar todos

General
Complete name                            : E:\eMule\The.Entity.(1981).UNCUT.DVDRip.DivX5.[TheRostrum.net].avi
Format                                   : AVI
Format/Info                              : Audio Video Interleave
File size                                : 702 MiB
Duration                                 : 2h 0mn
Overall bit rate                         : 818 Kbps
Writing library                          : AVI plugin release

Video
ID                                       : 0
Format                                   : MPEG-4 Visual
Format settings, BVOP                    : 1
Format settings, QPel                    : No
Format settings, GMC                     : 2 warppoints
Format settings, Matrix                  : Default (H.263)
Muxing mode                              : Packed bitstream
Codec ID                                 : DX50
Codec ID/Hint                            : DivX 5
Duration                                 : 2h 0mn
Bit rate                                 : 716 Kbps
Width                                    : 720 pixels
Height                                   : 300 pixels
Display aspect ratio                     : 2.40:1
Frame rate                               : 25.000 fps
Color space                              : YUV
Chroma subsampling                       : 4:2:0
Bit depth                                : 8 bits
Scan type                                : Progressive
Compression mode                         : Lossy
Bits/(Pixel*Frame)                       : 0.133
Stream size                              : 614 MiB (88%)
Writing library                          : DivX 5.0.2 (UTC 2002-05-16)

Audio
ID                                       : 1
Format                                   : MPEG Audio
Format version                           : Version 1
Format profile                           : Layer 3
Mode                                     : Joint stereo
Mode extension                           : Intensity Stereo + MS Stereo
Codec ID                                 : 55
Codec ID/Hint                            : MP3
Duration                                 : 2h 0mn
Bit rate mode                            : Constant
Bit rate                                 : 96.0 Kbps
Channel(s)                               : 2 channels
Sampling rate                            : 48.0 KHz
Compression mode                         : Lossy
Stream size                              : 82.4 MiB (12%)
Alignment                                : Split accross interleaves
Interleave, duration                     : 200 ms (5.00 video frames)



Imagem
Imagem
Imagem
Imagem
Imagem


ed2k: The.Entity.(1981).UNCUT.DVDRip.DivX5.avi  [701.75 Mb]

The Entity 1981 Uncut Dvdrip Divx - ptbr.rar
Não tem Permissão para ver os ficheiros anexados nesta mensagem.

Avatar do Utilizador
arf100c
eMuleCoop
eMuleCoop
Mensagens: 7341
Registado: 08 jun 2009, 15:48

Re: The Entity (1981)

Mensagem por arf100c » 20 fev 2014, 02:26

fontes confirmadas
movendo tópico

tuelo
Utilizador
Utilizador
Mensagens: 264
Registado: 12 nov 2011, 15:04

Re: The Entity (1981) [UNCUT] *DVDRip*

Mensagem por tuelo » 20 fev 2014, 15:37

comferindo! obrigado.

Responder

Voltar para “Filmes Arquivados // Filed Movies (Com Legendas/With Subtitles)”