Planet Terror (2007) *LPT DVDRip* - The_Rostrum

Moderador: Moderador

Responder
Avatar do Utilizador
Barefaced
Administrador
Administrador
Mensagens: 32797
Registado: sexta jul 06, 2007 5:43 pm
Localização: @ Home
Contacto:

Planet Terror (2007) *LPT DVDRip* - The_Rostrum

Mensagem por Barefaced » sábado mai 07, 2011 12:24 am




Sinopse
No filme "Planeta Terror", o casal de médicos William e Dakota Block (Brolin e Shelton) descobrem que a cidade está inundada por pessoas cobertas de feridas e um suspeito vazio nos olhos. Entre os feridos está Cherry (McGowan), uma stripper a quem a perna foi arrancada do corpo durante um ataque à beira da estrada. Wray (Rodriguez), a sua antiga cara metade, está ao lado dela e a protegê-la. Cherry pode estar abatida, mas ela ainda não dançou a sua última dança. Enquanto os inválidos rapidamente se tornam agressores enraivecidos, Cherry e Wray conduzem uma equipa de guerreiros acidentais pela noite, em direcção a um destino que deixará milhões infectados, inúmeros mortos e alguns sortudos a lutar para encontrar o último canto seguro do Planeta Terror.


imdb.com
Planet Terror (2007)

Capa
Sinopse:After an experimental bio-weapon is released, turning thousands into zombie-like creatures, it's up to a rag-tag group of survivors to stop the infected and those behind its release.
Pontuação:7.1
Duração:105 minutos
Idioma:English
Realizador:Robert Rodriguez
Actores:Rose McGowan, Freddy Rodríguez, Josh Brolin, Marley Shelton, Jeff Fahey
  
Fonte:http://www.imdb.com/title/tt1077258
Última Actualização:Segunda Março 12, 2018 01:26


Código: Selecionar todos

General
Complete name                    : Planet.Terror.(2007).DVDRip.XviD.LPT-The_Rostrum.avi
Format                           : AVI
Format/Info                      : Audio Video Interleave
File size                        : 899 MiB
Duration                         : 1h 45mn
Overall bit rate                 : 1 191 Kbps
Writing application              : FairUse Wizard - http://fairusewizard.com
Writing library                  : The best and REALLY easy backup tool

Video
ID                               : 0
Format                           : MPEG-4 Visual
Format profile                   : Advanced Simple@L5
Format settings, BVOP            : 1
Format settings, QPel            : No
Format settings, GMC             : No warppoints
Format settings, Matrix          : Default (MPEG)
Muxing mode                      : Packed bitstream
Codec ID                         : XVID
Codec ID/Hint                    : XviD
Duration                         : 1h 45mn
Bit rate                         : 1 053 Kbps
Width                            : 608 pixels
Height                           : 368 pixels
Display aspect ratio             : 1.652
Frame rate                       : 25.000 fps
Color space                      : YUV
Chroma subsampling               : 4:2:0
Bit depth                        : 8 bits
Scan type                        : Progressive
Compression mode                 : Lossy
Bits/(Pixel*Frame)               : 0.188
Stream size                      : 795 MiB (88%)
Writing library                  : XviD 1.2.0.dev47 (UTC 2006-11-01)

Audio
ID                               : 1
Format                           : MPEG Audio
Format version                   : Version 1
Format profile                   : Layer 3
Mode                             : Joint stereo
Mode extension                   : MS Stereo
Codec ID                         : 55
Codec ID/Hint                    : MP3
Duration                         : 1h 45mn
Bit rate mode                    : Constant
Bit rate                         : 128 Kbps
Channel(s)                       : 2 channels
Sampling rate                    : 48.0 KHz
Compression mode                 : Lossy
Stream size                      : 96.6 MiB (11%)
Alignment                        : Aligned on interleaves
Interleave, duration             : 40 ms (1.00 video frame)
Interleave, preload duration     : 504 ms
Writing library                  : LAME3.97
Encoding settings                : -m j -V 4 -q 2 -lowpass 17 -b 128




Imagem

Imagem

Imagem

Imagem


ed2k: Planet.Terror.(2007).DVDRip.XviD.LPT-The_Rostrum.avi  [898.99 Mb]
Última edição por Barefaced em terça mar 10, 2009 11:49 pm, editado 1 vez no total.
Imagem

Responder

Voltar para “Filmes”

Quem está ligado:

Utilizadores neste fórum: Nenhum utilizador registado e 0 visitante