Little Women (2019) [REPACK] *DVDScr* - Hive-CM8

Versões não preparadas para o consumidor final de filmes lançados em 2010 e anos seguintes. // Movies 2010 and following years.

Moderador: Moderador

Responder
Avatar do Utilizador
unusual
eMulePoster
eMulePoster
Mensagens: 5839
Registado: 27 out 2008, 03:40

Little Women (2019) [REPACK] *DVDScr* - Hive-CM8

Mensagem por unusual » 14 jan 2020, 16:25

Imagem

Synopsis
Um clássico romance inspirado no livro “Mulherzinhas”, publicado em 1868, conta a história de quatro irmãs que procuram realizar os seus sonhos, em plena época da Guerra Civil. Cada uma com um feitio diferente: a já adulta, Meg, Jo, a impulsiva, Beth, a tímida e Amy, a orgulhosa.

In the late 1860's, the United States is just recovering from the bloody Civil War. Yet, life goes on in New England, where the four March sisters are growing up and discovering who they truly are. The narrative bounces between their times as small children and when they grow up and begin to leave their homes, breaking free from the shackles of their families and coming into their own identities. The four face heartbreak, sadness, love, and joy together in a world that's rapidly changing around them. They have to help each other change with it, or risk being left behind.
imdb.com
Little Women (2019)

Capa
Sinopse:Jo March reflects back and forth on her life, telling the beloved story of the March sisters - four young women each determined to live life on their own terms.
Pontuação:8.3
Duração:135 minutos
Idioma:English, French
Realizador:Greta Gerwig
Actores:Saoirse Ronan, Emma Watson, Florence Pugh, Eliza Scanlen, Laura Dern
  
Fonte:http://www.imdb.com/title/tt3281548
Última Actualização:Terça Janeiro 14, 2020 16:17

NFO:
Imagem

Litte.Woman.2019.DVDScr.XVID.AC3.HQ.Hive-CM8

Thx Hive

CM8 Doing It Right The First Time :D

Source: DVD Screener
thx m8

Notes:
here comes another highly awaited one

Please keep in mind a Screener does not represent the Video and Audioquality the Producers intend 
to show, so please support your local cinemas for the full Experience. thx

!!SCREENER Time!!.
As usual we love to share with friends all over the world.
Has also played in the budget, so ready to go.

We are looking for people who have screener files/discs or access to it, we cant get them all every 
year and to get some bigger titles we need people who have smaller titles too.

we are looking for Seberg,and still looking for Spies in disguise,Dark Waters,Cats and SW
anyone?
who wants to help us out moving forward?

Main Goal is security and protecting the owners for future sharing
We will remove all kind of watermarks and digital tracers.
if its not possible or suspicous security they wont get out, there is no need to do every title if its not 
secure enough, we dont want to burn a source.

so whoever wants to help out and share with us just msg us via mail: cm8crew@protonmail.com
thx


Video: 720x384 @bitrate 1500 2pass
Audio: Dolby Digital Stereo 2.0


http://www.imdb.com/title/tt3281548/


Pics:
Imagem
Imagem
Imagem
Imagem
Imagem

Plot:
Jo March reflects back and forth on her life, telling the beloved story of the March sisters - four young women 
each determined to live life on their own terms.

Cast:
Saoirse Ronan	...	Jo March
Emma Watson	    ...	Meg March
Florence Pugh	...	Amy March
Eliza Scanlen	...	Beth March
Laura Dern	    ...	Marmee March
Timothée Chalamet..	Theodore 'Laurie' Laurence
Tracy Letts	    ...	Mr. Dashwood
Bob Odenkirk	...	Father March
James Norton	...	John Brooke
Louis Garrel	...	Friedrich Bhaer
Jayne Houdyshell...	Hannah
Chris Cooper	...	Mr. Laurence
Meryl Streep	...	Aunt March
Rafael Silva	...	Friedrich's Friend
Mason Alban	    ...	Friedrich's Friend

General
Complete name                  : Little.Woman.2019.DVDScr.XVID.AC3.HQ.Hive-CM8.avi
Format                         : AVI
Format/Info                    : Audio Video Interleave
File size                      : 1.68 GiB
Duration                       : 2h 14mn
Overall bit rate               : 1 780 Kbps
Writing application            : Nandub v1.0rc2
Writing library                : Nandub build 1853/release

Video
ID                             : 0
Format                         : MPEG-4 Visual
Format profile                 : Advanced Simple@L5
Format settings, BVOP          : 2
Format settings, QPel          : Yes
Format settings, GMC           : No warppoints
Format settings, Matrix        : Default (H.263)
Muxing mode                    : Packed bitstream
Codec ID                       : XVID
Codec ID/Hint                  : XviD
Duration                       : 2h 14mn
Bit rate                       : 1 514 Kbps
Width                          : 720 pixels
Height                         : 384 pixels
Display aspect ratio           : 1.85:1
Frame rate                     : 23.976 fps
Color space                    : YUV
Chroma subsampling             : 4:2:0
Bit depth                      : 8 bits
Scan type                      : Progressive
Compression mode               : Lossy
Bits/(Pixel*Frame)             : 0.228
Stream size                    : 1.43 GiB (85%)
Writing library                : XviD 1.2.1 (UTC 2008-12-04)

Audio
ID                             : 1
Format                         : AC-3
Format/Info                    : Audio Coding 3
Mode extension                 : CM (complete main)
Format settings, Endianness    : Big
Codec ID                       : 2000
Duration                       : 2h 14mn
Bit rate mode                  : Constant
Bit rate                       : 256 Kbps
Channel(s)                     : 2 channels
Channel positions              : Front: L R
Sampling rate                  : 48.0 KHz
Bit depth                      : 16 bits
Compression mode               : Lossy
Delay relative to video        : 14ms
Stream size                    : 247 MiB (14%)
Alignment                      : Split accross interleaves
Interleave, duration           : 42 ms (1.00 video frame)
Interleave, preload duration   : 500 ms

cm8crew@protonmail.com



Imagem Imagem
Imagem Imagem


ed2k: Little.Women.(2019).REPACK.DVDScr.XviD.AC3.HQ.Hive-CM8.[TheRostrum.net].avi  [1.68 Gb]
Imagem
Imagem

giraldino
Utilizador
Utilizador
Mensagens: 2910
Registado: 22 dez 2010, 22:24

Re: Little Women (2019) [REPACK] *DVDScr* - Hive-CM8

Mensagem por giraldino » 14 jan 2020, 19:09

Obrigado.

Responder

Voltar para “Non-Retail (HDRip, DVDScr, WP, R5, PDVD, VHS, LD, HDTV, TV)”