Green Book (2018) DVDScr* - CM8

Versões não preparadas para o consumidor final de filmes lançados em 2010 e anos seguintes. // Movies 2010 and following years.

Moderador: Moderador

Responder
Avatar do Utilizador
unusual
eMulePoster
eMulePoster
Mensagens: 5160
Registado: 27 out 2008, 03:40

Green Book (2018) DVDScr* - CM8

Mensagem por unusual » 30 dez 2018, 07:57

Imagem

Synopsis
Tony Lip está à procura de trabalho depois do encerramento do Copacabana, a discoteca onde era segurança e porteiro. Conhece então o pianista Don Shirley, que o desafia a conduzi-lo numa digressão pelo Sul dos Estados Unidos. Na viagem, começam por entrar em rota de colisão, mas um vínculo forte começa a crescer entre os dois.

Green Book is the real life account of Jamaican born pianist Don Shirley's musical tour through the Deep South during the Jim Crow era. Shirley (Mahershala Ali) enlists the services of rough and tough New York City bouncer Tony Lip (Viggo Mortensen) as his personal chauffeur and bodyguard as he performs jazz piano sets through a section of America where he is most unwelcome. While the duo's personalities and lifestyles clash at first, their bond on the road strengthens as they each navigate the culture shock and harsh racism of the 1960s American South in their own ways.
imdb.com
Green Book (2018)

Capa
Sinopse:A working-class Italian-American bouncer becomes the driver of an African-American classical pianist on a tour of venues through the 1960s American South.
Pontuação:8.3
Duração:130 minutos
Idioma:English, Italian, Russian, German
Realizador:Peter Farrelly
Actores:Viggo Mortensen, Mahershala Ali, Linda Cardellini, Sebastian Maniscalco, Dimiter D. Marinov
  
Fonte:http://www.imdb.com/title/tt6966692
Última Actualização:Domingo Dezembro 30, 2018 07:46

NFO:
Imagem


Green.Book.2018.DVDScr.Xvid.AC3.HQ.Hive-CM8


Thx Hive

CM8 Doing It Right The First Time :D

Source: DVDScr

Notes:
btw merry christmas and a happy new year!!
well, one year has passed and its that time of the year that everyone is waiting for.
SCREENER Time. 
As usual we love to share with friends all over the world.
This first one already played in the budget, so this is the best title to pick for now.

Since we lost our site/mail with no backup and with it all contacts gone,
its quite complicated to get things going this year.
We want to get things back as they were, but it will take time.

The whole system only works if people are helping us, it doesnt work without you.
We need your help this year more than ever, so plz come forward if you have a scr or access to it.
We like to have all scr-titles if possible, but it has to be secure for everyone,
we want to get them out safely as every year.
every title counts towards the goal. thx


Especially i am looking for my friend on the street, msg us via mail plz 
cm8crew@protonmail.com

http://www.imdb.com/title/tt6966692/

Pics:

Imagem
Imagem
Imagem
Imagem
Imagem


Plot:
A working-class Italian-American bouncer becomes the driver of an African-American classical pianist 
on a tour of venues through the 1960s American South.


Cast:
Viggo Mortensen ...	Tony Lip
Mahershala Ali ... Dr. Don Shirley
Linda Cardellini ...Dolores
Sebastian Maniscalco ... Johnny Venere
Dimiter D. Marinov ... Oleg
Mike Hatton ...	George
P.J. Byrne ...	Record Exec
Joe Cortese ...	Gio Loscudo
Maggie Nixon ... Copa Coat Check Girl
Von Lewis ...	Bobby Rydell
Jon Sortland ... Rydell Band Leader
Don Stark ... Jules Podell
Anthony Mangano	... Copa Bouncer Danny
Paul Sloan ...Copa Maître D' Carmine
Quinn Duffy ... Mikey Cerrone


General
Complete name                            : D:\Videos\Green.Book.2018.DVDScr.Xvid.AC3.HQ.Hive-CM8.avi
Format                                   : AVI
Format/Info                              : Audio Video Interleave
File size                                : 1.43 GiB
Duration                                 : 2 h 10 min
Overall bit rate                         : 1 572 kb/s
Writing application                      : Nandub v1.0rc2
Writing library                          : Nandub build 1853/release

Video
ID                                       : 0
Format                                   : MPEG-4 Visual
Format profile                           : Advanced Simple@L5
Format settings                          : BVOP2 / QPel
Format settings, BVOP                    : 2
Format settings, QPel                    : Yes
Format settings, GMC                     : No warppoints
Format settings, Matrix                  : Default (H.263)
Muxing mode                              : Packed bitstream
Codec ID                                 : XVID
Codec ID/Hint                            : XviD
Duration                                 : 2 h 10 min
Bit rate                                 : 1 307 kb/s
Width                                    : 720 pixels
Height                                   : 368 pixels
Display aspect ratio                     : 1.957
Frame rate                               : 23.976 (24000/1001) FPS
Color space                              : YUV
Chroma subsampling                       : 4:2:0
Bit depth                                : 8 bits
Scan type                                : Progressive
Compression mode                         : Lossy
Bits/(Pixel*Frame)                       : 0.206
Stream size                              : 1.19 GiB (83%)
Writing library                          : XviD 1.2.1 (UTC 2008-12-04)

Audio
ID                                       : 1
Format                                   : AC-3
Format/Info                              : Audio Coding 3
Commercial name                          : Dolby Digital
Codec ID                                 : 2000
Duration                                 : 2 h 10 min
Bit rate mode                            : Constant
Bit rate                                 : 256 kb/s
Channel(s)                               : 2 channels
Channel layout                           : L R
Sampling rate                            : 48.0 kHz
Frame rate                               : 31.250 FPS (1536 SPF)
Bit depth                                : 16 bits
Compression mode                         : Lossy
Stream size                              : 238 MiB (16%)
Alignment                                : Split accross interleaves
Interleave, duration                     : 42  ms (1.00 video frame)
Interleave, preload duration             : 500  ms
Service kind                             : Complete Main

Greetz

cm8crew@protonmail.com



Imagem Imagem
Imagem Imagem


ed2k: Green.Book.(2018).DVDScr.XviD.AC3.HQ.Hive-CM8.[TheRostrum.net].avi  [1.43 Gb]
Não tem Permissão para ver os ficheiros anexados nesta mensagem.
Imagem
Imagem

giraldino
Utilizador
Utilizador
Mensagens: 2758
Registado: 22 dez 2010, 22:24

Re: Green Book (2018) DVDScr* - CM8

Mensagem por giraldino » 05 jan 2019, 18:19

Obrigado.

Avatar do Utilizador
Mac1963
Utilizador
Utilizador
Mensagens: 11
Registado: 22 out 2018, 08:52

Re: Green Book (2018) DVDScr* - CM8

Mensagem por Mac1963 » 07 jan 2019, 09:45

Obrigado

Avatar do Utilizador
Sir Tycoon
Utilizador
Utilizador
Mensagens: 138
Registado: 09 out 2016, 10:17

Re: Green Book (2018) DVDScr* - CM8

Mensagem por Sir Tycoon » 27 jan 2019, 09:24

Nice one thanks
Imagem

kursosele
Utilizador
Utilizador
Mensagens: 5
Registado: 28 dez 2018, 21:29

Re: Green Book (2018) DVDScr* - CM8

Mensagem por kursosele » 02 fev 2019, 00:39

Thanks very much. Good film. Obrigado!

Responder

Voltar para “Non-Retail (HDRip, DVDScr, WP, R5, PDVD, VHS, LD, HDTV, TV)”