Paddington (2014) *HDRip* - CM8

Versões não preparadas para o consumidor final de filmes lançados em 2010 e anos seguintes. // Movies 2010 and following years.

Moderador: Moderador

Responder
Avatar do Utilizador
SopaS
Moderador
Moderador
Mensagens: 391
Registado: 07 ago 2009, 00:27
Localização: Vila Real
Contacto:

Paddington (2014) *HDRip* - CM8

Mensagem por SopaS » 16 fev 2015, 02:09

Imagem


Synopsis
Paddington (voz de Ben Whishaw) foi criado na floresta do Peru pelos tios Pastuzo (voz de Michael Gambon) e Luzy (voz de Imelda Staunton), mas um terramoto acaba por separar o trio. Face a disto, o pequeno urso é enviado pela tia para Londres, local onde mora um explorador que visitou o Peru décadas atrás. Paddington faz a viagem clandestinamente e, ao chegar, acaba por ir para uma estação de comboios onde conhece a família Brown, que decide ajudá-lo a encontrar o tal explorador. Só que a vida na civilização e entre humanos não é tão simples assim.

Paddington has grown up deep in the Peruvian jungle with his Aunt Lucy who, inspired by a chance encounter with an English explorer, has raised her nephew to dream of an exciting life in London. When an earthquake destroys their home, Aunt Lucy decides to smuggle her young nephew on board a boat bound for England, in search of a better life. Arriving alone at Paddington Station, Paddington soon finds that city life is not all he had imagined – until he meets the kindly Brown family, who find him with a label tied around his neck which reads ‘Please look after this bear. Thank you.’ They offer him a temporary home whilst he searches for the explorer who impressed Aunt Lucy all those years before.


imdb.com
Paddington (2014)

Capa
Sinopse:A young Peruvian bear travels to London in search of a home. Finding himself lost and alone at Paddington Station, he meets the kindly Brown family, who offer him a temporary haven.
Pontuação:7.2
Duração:95 minutos
Idioma:English
Realizador:Paul King
Actores:Tim Downie, Madeleine Worrall, Lottie Steer, Geoffrey Palmer, Theresa Watson
  
Fonte:http://www.imdb.com/title/tt1109624
Última Actualização:Segunda Março 12, 2018 07:51


NFO:
[center]Imagem


Paddington.2014.UNSUBBED.HDRip.XVID.AC3.HQ.Hive-CM8

Thx Hive

CM8 Doing It Right The First Time


Source:

Video: Unsubbed 720p Korean VOD
Audio: English good cam or bad line from Subbed 720p Korean VOD
thx

Notes:

well that was a pita, combining the best of two so different files together to get one perfect one, took me 2 days
there are 2 different Korean Videos

Video 1: Hardcoded Korean Subs with English good cam or bad line audio with 24 frames with runtime 1h26
Video 2: Non-Subbed Korean Video with Korean Studio audio with 30 frames with runtime 1h35

You cant speedup audio that much and you cant slow down video that much without getting it jerky,
had to do a workaround and find a common Videoframerate (25frames in this case) for both Video and Audio without getting jerky video.
So NO Video has been cut out and NO Audio has been removed or added, all is untouched
combined framerate is now 25 frames and runtime in the middle 1h31, its all there

Encode:

for the Video i fixed rgb and added sharpness
the Audio eventhough its called studio audio isnt the best, sounds more like a line, tried cleaning it, not much to improve

still got very nice and will do me till retail

enjoy

Video: 720x304 @bitrate 1800 2pass
Audio: English AC3 2.0 Stereo
Sample: yes included

PS: 720p too later,if i can get it to work



http://www.imdb.com/title/tt1109624/


General
Complete name : Paddington.2014.UNSUBBED.HDRip.XVID.AC3.HQ.Hive-CM8.avi
Format : AVI
Format/Info : Audio Video Interleave
File size : 1.30 GiB
Duration : 1h 31mn
Overall bit rate : 2 033 Kbps
Writing application : Nandub v1.0rc2
Writing library : Nandub build 1853/release

Video
ID : 0
Format : MPEG-4 Visual
Format profile : Advanced Simple@L5
Format settings, BVOP : 2
Format settings, QPel : Yes
Format settings, GMC : No warppoints
Format settings, Matrix : Default (H.263)
Muxing mode : Packed bitstream
Codec ID : XVID
Codec ID/Hint : XviD
Duration : 1h 31mn
Bit rate : 1 799 Kbps
Width : 720 pixels
Height : 304 pixels
Display aspect ratio : 2.35:1
Frame rate : 25.000 fps
Color space : YUV
Chroma subsampling : 4:2:0
Bit depth : 8 bits
Scan type : Progressive
Compression mode : Lossy
Bits/(Pixel*Frame) : 0.329
Stream size : 1.15 GiB (89%)
Writing library : XviD 1.2.1 (UTC 2008-12-04)

Audio
ID : 1
Format : AC-3
Format/Info : Audio Coding 3
Mode extension : CM (complete main)
Format settings, Endianness : Big
Codec ID : 2000
Duration : 1h 31mn
Bit rate mode : Constant
Bit rate : 224 Kbps
Channel(s) : 2 channels
Channel positions : Front: L R
Sampling rate : 48.0 KHz
Bit depth : 16 bits
Compression mode : Lossy
Stream size : 146 MiB (11%)
Alignment : Split accross interleaves
Interleave, duration : 40 ms (1.00 video frame)
Interleave, preload duration : 500 ms



Plot:

A young Peruvian bear travels to London in search of a home.
Finding himself lost and alone at Paddington Station, he meets the
kindly Brown family, who offer him a temporary haven.


Cast:

Nicole Kidman ... Millicent
Ben Whishaw ... Paddington (voice)
Tim Downie ... Montgomery Clyde


Imagem
Imagem
Imagem
Imagem
Imagem


phpBB [video]



Greetz

SugarB
SiMPLE
ViSiON,SceneLovers,PRESTiGE,SANTi,YanKeeS,COPYxRIGHT,THC,
LKRG,Kingstoner,REsuRRecTioN,FooKaS,ACAB,Unevano,BigVik,Rapeseed,SAFC,
goldadvance,KaN1vE,Pinnz,Wayne,SeeN,jtr,ICONiK,TED
Mr Hive,and most P2P
Great Work Guys :D

LOOKING FOR ANYTHING YOU WANT TO LOOK AND SOUND BETTER

COME FIND US
CM8@hushmail.me



Imagem Imagem
Imagem Imagem
Imagem Imagem
Imagem Imagem
Imagem Imagem
Imagem Imagem


ed2k: Paddington.(2014).HDRip.XviD.HQ.Hive-CM8.avi  [1.30 Gb]

Responder
  • Tópicos Semelhantes
    Respostas
    Visualizações
    Última Mensagem

Voltar para “Non-Retail (HDRip, DVDScr, WP, R5, PDVD, VHS, LD, HDTV, TV)”