Darkest Hour (2017) *DVDScr* - Hive-CM8

Versões não preparadas para o consumidor final de filmes lançados em 2010 e anos seguintes. // Movies 2010 and following years.

Moderador: Moderador

Responder
Avatar do Utilizador
unusual
eMulePoster
eMulePoster
Mensagens: 4539
Registado: segunda out 27, 2008 3:40 am

Darkest Hour (2017) *DVDScr* - Hive-CM8

Mensagem por unusual » segunda jan 15, 2018 10:03 pm

Imagem


Synopsis
A poucos dias de se tornar Primeiro-Ministro da Grã-Bretanha, Winston Churchill tem de tomar uma decisão crítica: explorar um tratado de paz negociado com a Alemanha Nazi ou manter-se firme e lutar pelos ideais de liberdade e independência da nação. Quando as imparáveis forças Nazis atravessam a Europa Ocidental e a ameaça de invasão está iminente, com um povo impreparado, um Rei cético e o próprio partido a conspirar contra ele, Churchill tem que suportar a sua hora mais negra, unir uma nação e tentar mudar o curso da história.

Within days of becoming Prime Minister of Great Britain, Winston Churchill (Gary Oldman) must face one of his most turbulent and defining trials: exploring a negotiated peace treaty with Nazi Germany, or standing firm to fight for the ideals, liberty and freedom of a nation. As the unstoppable Nazi forces roll across Western Europe and the threat of invasion is imminent, and with an unprepared public, a skeptical King, and his own party plotting against him, Churchill must withstand his darkest hour, rally a nation, and attempt to change the course of world history.


imdb.com
Darkest Hour (2017)

Capa
Sinopse:During the early days of World War II, the fate of Western Europe hangs on the newly-appointed British Prime Minister Winston Churchill, who must decide whether to negotiate with Adolf Hitler, or fight on against incredible odds.
Pontuação:7.4
Duração:125 minutos
Idioma:English, French, German
Realizador:Joe Wright
Actores:Gary Oldman, Kristin Scott Thomas, Ben Mendelsohn, Lily James, Ronald Pickup
  
Fonte:http://www.imdb.com/title/tt4555426
Última Actualização:Segunda Março 12, 2018 08:03


Código: Selecionar todos

Darkest.Hour.2017.DVDScr.XVID.AC3.HQ.Hive-CM8 

Thx Hive

CM8 Doing It Right The First Time

Source: a cool dude on the street
thx

Notes:
another goodie
Don´t forget watching a scr is not like the real thing, you should still all go to the cinema and support the Producers, thx
We especially sharing this for the people who cant visit the cinema due to illness or because it is a limited release that
doesnt make it to their country,
so that they also can experience some award nominations.

Encode:
quality was nice, not much to do
enjoy


Screeners:
We are still missing hostiles,downsizing,phantom thread,gr.showman,money in the world anyone want to share for the collection?
only serious people plz
Don't post info public or on any blog its too risky, it has to be done safely and secure in private, and we have proven that we can do it.
Msg us cm8crew@hushmail.com - we will respect your wishes
if you want to share with us in private it will stay private

Video: 720x384 @bitrate 1700 2pass
Audio: English Stereo
Sample: yes included

http://www.imdb.com/title/tt4555426/

General
Format : AVI
Format/Info : Audio Video Interleave
File size : 1.90 GiB
Duration : 2h 4mn
Overall bit rate : 2 182 Kbps
Writing application : Nandub v1.0rc2
Writing library : Nandub build 1853/release

Video
ID : 0
Format : MPEG-4 Visual
Format profile : Advanced Simple@L5
Format settings, BVOP : 2
Format settings, QPel : Yes
Format settings, GMC : No warppoints
Format settings, Matrix : Default (H.263)
Muxing mode : Packed bitstream
Codec ID : XVID
Codec ID/Hint : XviD
Duration : 2h 4mn
Bit rate : 1 914 Kbps
Width : 720 pixels
Height : 384 pixels
Display aspect ratio : 1.85:1
Frame rate : 30.000 fps
Color space : YUV
Chroma subsampling : 4:2:0
Bit depth : 8 bits
Scan type : Progressive
Compression mode : Lossy
Bits/(Pixel*Frame) : 0.231
Stream size : 1.67 GiB (88%)
Writing library : XviD 1.2.1 (UTC 2008-12-04)

Audio
ID : 1
Format : AC-3
Format/Info : Audio Coding 3
Mode extension : CM (complete main)
Format settings, Endianness : Big
Codec ID : 2000
Duration : 2h 4mn
Bit rate mode : Constant
Bit rate : 256 Kbps
Channel(s) : 2 channels
Channel positions : Front: L R
Sampling rate : 48.0 KHz
Bit depth : 16 bits
Compression mode : Lossy
Stream size : 229 MiB (12%)
Alignment : Split accross interleaves
Interleave, duration : 33 ms (1.00 video frame)
Interleave, preload duration : 500 ms



Imagem Imagem
Imagem Imagem


ed2k: Darkest.Hour.(2017).DVDScr.XviD.AC3.HQ.Hive-CM8.[TheRostrum.net].avi  [1.90 Gb]
Não tem Permissão para ver os ficheiros anexados nesta mensagem.
Imagem
Imagem

giraldino
Utilizador
Utilizador
Mensagens: 2588
Registado: quarta dez 22, 2010 10:24 pm

Re: Darkest Hour (2017) *DVDScr* - Hive-CM8

Mensagem por giraldino » terça jan 16, 2018 1:17 am

Obrigado.

Avatar do Utilizador
bseven
eMulePoster
eMulePoster
Mensagens: 108
Registado: sexta mar 09, 2012 10:05 am
Localização: Portugal

Re: Darkest Hour (2017) *DVDScr* - Hive-CM8

Mensagem por bseven » segunda jan 22, 2018 9:12 pm

Boas a todos.
fica aqui as legendas em pt-br

(anexadas :nice:)
eMule v0.50a Xtreme 8.1 Statistics [bseven] on 13-08-2018
copy/paste-- https://pastebin.com/L0Q85PMg

Responder

Voltar para “Non-Retail (HDRip, DVDScr, WP, R5, PDVD, VHS, LD, HDTV, TV)”

Quem está ligado:

Utilizadores neste fórum: Nenhum utilizador registado e 4 visitantes