Sonic the Hedgehog (2020) *1080p BluRay* - FGT

1080p (a1080p, 1080p)
Qualquer Alta Resolução // Any High Definition release, be it full (BD, HDDVD, HDTV stream, BDRip, HDDVDRip, HDTVRip)

Moderador: Moderador

Responder
Avatar do Utilizador
Lost_Rider34
Administrador
Administrador
Mensagens: 10835
Registado: 15 out 2008, 14:07
Localização: Aqui
Contacto:

Sonic the Hedgehog (2020) *1080p BluRay* - FGT

Mensagem por Lost_Rider34 » 22 mai 2020, 20:52

Imagem

A aventura vai acompanhar Sonic numa batalha contra o Doutor Eggman (Jim Carrey), um cientista louco que deseja capturar todas as Esmeraldas do Caos para poder criar sua própria utopia, a Eggland. Para isso, o ouriço contará com a ajuda do policial Tom (James Marsden).

SONIC THE HEDGEHOG is a live-action adventure comedy based on the global blockbuster video game franchise from Sega that centers on the infamously brash bright blue hedgehog. The film follows the (mis)adventures of Sonic as he navigates the complexities of life on Earth with his newfound -- human -- best friend Tom Wachowski (James Marsden). Sonic and Tom join forces to try and stop the villainous Dr. Robotnik (Jim Carrey) from capturing Sonic and using his immense powers for world domination. The film also stars Tika Sumpter and Ben Schwartz as the voice of Sonic.
imdb.com
Sonic the Hedgehog (2020)

Capa
Sinopse:After discovering a small, blue, fast hedgehog, a small-town police officer must help it defeat an evil genius who wants to do experiments on it.
Pontuação:6.8
Duração:99 minutos
Idioma:English
Realizador:Jeff Fowler
Actores:Ben Schwartz, James Marsden, Jim Carrey, Tika Sumpter, Natasha Rothwell
  
Fonte:http://www.imdb.com/title/tt3794354
Última Actualização:Sábado Março 07, 2020 15:21

Código: Selecionar todos

Video
 ID : 1
 Format : AVC
 Format/Info : Advanced Video Codec
 Format profile : High@L4.1
 Format settings : CABAC / 4 Ref Frames
 Format settings, CABAC : Yes
 Format settings, Reference frames : 4 frames
 Codec ID : V_MPEG4/ISO/AVC
 Duration : 1 h 38 min
 Bit rate : 11.5 Mb/s
 Width : 1 920 pixels
 Height : 804 pixels
 Display aspect ratio : 2.40:1
 Frame rate mode : Constant
 Frame rate : 23.976 (24000/1001) FPS
 Color space : YUV
 Chroma subsampling : 4:2:0
 Bit depth : 8 bits
 Scan type : Progressive
 Bits/(Pixel*Frame) : 0.311
 Stream size : 7.94 GiB (88%)
 Title : Sonic.The.Hedgehog.2020.1080p.BluRay.x264.DTS-FGT
 Writing library : x264 core 148 r2748 97eaef2
 Encoding settings : cabac=1 / ref=4 / deblock=1:-2:-2 / analyse=0x3:0x113 / me=umh / subme=9 / psy=1 / psy_rd=1.00:0.15 / mixed_ref=1 / me_range=16 / chroma_me=1 / trellis=2 / 8x8dct=1 / cqm=0 / deadzone=21,11 / fast_pskip=1 / chroma_qp_offset=-3 / threads=72 / lookahead_threads=3 / sliced_threads=0 / nr=0 / decimate=1 / interlaced=0 / bluray_compat=0 / constrained_intra=0 / bframes=3 / b_pyramid=2 / b_adapt=1 / b_bias=0 / direct=3 / weightb=1 / open_gop=0 / weightp=2 / keyint=250 / keyint_min=25 / scenecut=40 / intra_refresh=0 / rc_lookahead=50 / rc=2pass / mbtree=1 / bitrate=11500 / ratetol=1.0 / qcomp=0.60 / qpmin=0 / qpmax=69 / qpstep=4 / cplxblur=20.0 / qblur=0.5 / vbv_maxrate=31250 / vbv_bufsize=31250 / nal_hrd=none / filler=0 / ip_ratio=1.40 / aq=1:1.00
 Language : English
 Default : Yes
 Forced : No

 Audio
 ID : 2
 Format : DTS
 Format/Info : Digital Theater Systems
 Codec ID : A_DTS
 Duration : 1 h 38 min
 Bit rate mode : Constant
 Bit rate : 1 509 kb/s
 Channel(s) : 6 channels
 Channel layout : C L R Ls Rs LFE
 Sampling rate : 48.0 kHz
 Frame rate : 93.750 FPS (512 SPF)
 Bit depth : 24 bits
 Compression mode : Lossy
 Stream size : 1.04 GiB (12%)
 Title : Sonic.The.Hedgehog.2020.1080p.BluRay.x264.DTS-FGT
 Language : English
 Default : Yes
 Forced : No

 Text
 ID : 3
 Format : UTF-8
 Codec ID : S_TEXT/UTF8
 Codec ID/Info : UTF-8 Plain Text
 Duration : 1 h 31 min
 Bit rate : 65 b/s
 Count of elements : 1276
 Stream size : 43.8 KiB (0%)
 Language : English
 Default : Yes
 Forced : No

 Menu
 00:00:00.000 : en:Chapter 01
 00:03:52.190 : en:Chapter 02
 00:09:32.989 : en:Chapter 03
 00:12:45.973 : en:Chapter 04
 00:18:09.421 : en:Chapter 05
 00:22:20.797 : en:Chapter 06
 00:27:33.693 : en:Chapter 07
 00:35:09.107 : en:Chapter 08
 00:41:37.328 : en:Chapter 09
 00:51:24.623 : en:Chapter 10
 01:01:04.827 : en:Chapter 11
 01:04:38.374 : en:Chapter 12
 01:10:20.341 : en:Chapter 13
 01:18:54.020 : en:Chapter 14
 01:25:38.716 : en:Chapter 15
 01:30:27.296 : en:Chapter 16
Imagem Imagem
Imagem Imagem
Imagem Imagem

phpBB [video]



LINKS:

ed2k: Sonic.The.Hedgehog.2020.1080p.BluRay.x264.DTS-FGT.[TheRostrum.net].mkv  [8.99 Gb]
ed2k: Sonic.The.Hedgehog.2020.1080p.BluRay.x264.DTS-FGT.[TheRostrum.net].srt  [93.3 Kb]
Não tem Permissão para ver os ficheiros anexados nesta mensagem.
Imagem

Pela sua saude fique em casa / For your health stay at home

Imagem

giraldino
Utilizador
Utilizador
Mensagens: 3118
Registado: 22 dez 2010, 22:24

Re: Sonic the Hedgehog (2020) *1080p BluRay* - FGT

Mensagem por giraldino » 22 mai 2020, 23:39

Obrigado.

Avatar do Utilizador
armenio12
Utilizador
Utilizador
Mensagens: 38
Registado: 04 mar 2020, 17:39

Re: Sonic the Hedgehog (2020) *1080p BluRay* - FGT

Mensagem por armenio12 » 26 mai 2020, 22:19

Obrigado.

Responder

Voltar para “Alta Definição // High Definition (Com Legendas/With Subtitles)”