Sunrise: A Song of Two Humans (1927) *720p BluRay* - HDCLUB

1080p (a1080p, 1080p)
Qualquer Alta Resolução // Any High Definition release, be it full (BD, HDDVD, HDTV stream, BDRip, HDDVDRip, HDTVRip)

Moderador: Moderador

Responder
Avatar do Utilizador
MuMuGoN
eMuleCoop
eMuleCoop
Mensagens: 673
Registado: 23 jul 2012, 02:08

Sunrise: A Song of Two Humans (1927) *720p BluRay* - HDCLUB

Mensagem por MuMuGoN » 26 mar 2020, 00:25

Imagem

Sinopse
Seduzido por uma moça da cidade, um fazendeiro tenta afogar sua mulher, mas desiste no último momento. Esta foge para a cidade, mas ele a segue para provar o seu amor. Vencedor de 3 Oscar, incluindo melhor atriz para Janet Gaynor (Nasce uma Estrela), Aurora é uma obra poética de grande beleza plástica, repleta de cenas inesquecíveis.

A young farmer is tempted by the charms of a sophisticated city woman, who suggests to him that his dull wife might accidentally drown. He considers this plan, and imagines what his life might be like if he went to the big bad city.


imdb.com
Sunrise (1927)

Capa
Sinopse:An allegorical tale about a man fighting the good and evil within him. Both sides are made flesh - one a sophisticated woman he is attracted to and the other his wife.
Pontuação:8.2
Duração:94 minutos
Idioma:English
Realizador:F.W. Murnau
Actores:George O'Brien, Janet Gaynor, Margaret Livingston, Bodil Rosing, J. Farrell MacDonald
  
Fonte:http://www.imdb.com/title/tt0018455
Última Actualização:Segunda Março 12, 2018 01:47

Código: Selecionar todos

General
Unique ID                      : 205980352949603589758604789357300793810 (0x9AF65F7AF815F02D8954869C7111C1D2)
Complete name                  : Sunrise.A.Song.Of.Two.Humans.1927.720p.BluRay.x264-HDCLUB [PublicHD].mkv
Format                         : Matroska
Format version                 : Version 2
File size                      : 4.75 GiB
Duration                       : 1 h 34 min
Overall bit rate mode          : Variable
Overall bit rate               : 7 213 kb/s
Movie name                     : Sunrise: A Song of Two Humans (1927) - Release for HDCLUB
Encoded date                   : UTC 2010-07-17 08:29:51
Writing application            : mkvmerge v2.9.7 ('Tenderness') built on Jul  1 2009 18:43:35
Writing library                : libebml v0.7.7 + libmatroska v0.8.1

Video
ID                             : 1
Format                         : AVC
Format/Info                    : Advanced Video Codec
Format profile                 : High@L4.1
Format settings                : CABAC / 6 Ref Frames
Format settings, CABAC         : Yes
Format settings, Reference fra : 6 frames
Codec ID                       : V_MPEG4/ISO/AVC
Duration                       : 1 h 34 min
Bit rate                       : 6 053 kb/s
Width                          : 864 pixels
Height                         : 720 pixels
Display aspect ratio           : 1.200
Frame rate mode                : Constant
Frame rate                     : 23.976 (24000/1001) FPS
Color space                    : YUV
Chroma subsampling             : 4:2:0
Bit depth                      : 8 bits
Scan type                      : Progressive
Bits/(Pixel*Frame)             : 0.406
Stream size                    : 3.89 GiB (82%)
Title                          : Release for HDCLUB
Writing library                : x264 core 78 r1301M bcba15d
Encoding settings              : cabac=1 / ref=6 / deblock=1:-3:-3 / analyse=0x3:0x113 / me=umh / subme=9 / psy=1 / psy_rd=0.6:0.1 / mixed_ref=1 / me_range=48 / chroma_me=1 / trellis=2 / 8x8dct=1 / cqm=0 / deadzone=21,11 / chroma_qp_offset=-3 / threads=6 / nr=0 / decimate=0 / mbaff=0 / constrained_intra=0 / bframes=6 / b_pyramid=0 / b_adapt=2 / b_bias=0 / direct=3 / wpredb=1 / keyint=250 / keyint_min=25 / scenecut=40 / rc_lookahead=40 / rc=2pass / mbtree=1 / bitrate=6053 / ratetol=1.0 / qcomp=0.60 / qpmin=10 / qpmax=51 / qpstep=4 / cplxblur=20.0 / qblur=0.5 / ip_ratio=1.40 / aq=1:0.60
Language                       : English
Default                        : Yes
Forced                         : No

Audio #1
ID                             : 2
Format                         : AC-3
Format/Info                    : Audio Coding 3
Commercial name                : Dolby Digital
Codec ID                       : A_AC3
Duration                       : 1 h 34 min
Bit rate mode                  : Constant
Bit rate                       : 640 kb/s
Channel(s)                     : 2 channels
Channel layout                 : L R
Sampling rate                  : 48.0 kHz
Frame rate                     : 31.250 FPS (1536 SPF)
Bit depth                      : 16 bits
Compression mode               : Lossy
Stream size                    : 432 MiB (9%)
Title                          : Original Movietone score (mono) 2.0 @ 640Kbps
Language                       : English
Service kind                   : Complete Main
Default                        : Yes
Forced                         : No

Audio #2
ID                             : 3
Format                         : AC-3
Format/Info                    : Audio Coding 3
Commercial name                : Dolby Digital
Codec ID                       : A_AC3
Duration                       : 1 h 34 min
Bit rate mode                  : Constant
Bit rate                       : 320 kb/s
Channel(s)                     : 2 channels
Channel layout                 : L R
Sampling rate                  : 48.0 kHz
Frame rate                     : 31.250 FPS (1536 SPF)
Bit depth                      : 16 bits
Compression mode               : Lossy
Stream size                    : 216 MiB (4%)
Title                          : Olympic Chamber Orchestra score (stereo) 2.0 @ 320 Kbps
Language                       : English
Service kind                   : Complete Main
Default                        : No
Forced                         : No

Audio #3
ID                             : 4
Format                         : AC-3
Format/Info                    : Audio Coding 3
Commercial name                : Dolby Digital
Codec ID                       : A_AC3
Duration                       : 1 h 34 min
Bit rate mode                  : Constant
Bit rate                       : 128 kb/s
Channel(s)                     : 1 channel
Channel layout                 : C
Sampling rate                  : 48.0 kHz
Frame rate                     : 31.250 FPS (1536 SPF)
Bit depth                      : 16 bits
Compression mode               : Lossy
Stream size                    : 86.4 MiB (2%)
Title                          : одноголосый
Language                       : Russian
Service kind                   : Complete Main
Default                        : No
Forced                         : No

Audio #4
ID                             : 5
Format                         : Vorbis
Format settings, Floor         : 1
Codec ID                       : A_VORBIS
Duration                       : 1 h 34 min
Bit rate mode                  : Variable
Bit rate                       : 80.0 kb/s
Channel(s)                     : 2 channels
Sampling rate                  : 48.0 kHz
Compression mode               : Lossy
Stream size                    : 54.0 MiB (1%)
Title                          : Commentary Vorbis 2.0 @ 80 Kbps
Writing application            : Made with BeSweet v1.5b31
Writing library                : libVorbis 1.0 (UTC 2002-07-17)
Language                       : English
Default                        : No
Forced                         : No
Encoded_Application/Url        : http://DSPguru.doom9.org

Text
ID                             : 6
Format                         : UTF-8
Codec ID                       : S_TEXT/UTF8
Codec ID/Info                  : UTF-8 Plain Text
Language                       : Russian
Default                        : Yes
Forced                         : No


Imagem


phpBB [video]



ed2k: Sunrise.A.Song.Of.Two.Humans.(1927).720p.BluRay.x264-HDCLUB.mkv  [4.75 Gb]
Não tem Permissão para ver os ficheiros anexados nesta mensagem.
Última edição por MuMuGoN em 26 mar 2020, 02:41, editado 3 vezes no total.
:cavalinho: :dead_horse: :dead_horse: :dead_horse:

Responder

Voltar para “Alta Definição // High Definition (Com Legendas/With Subtitles)”