Ready or Not (2019) *1080p BluRay* - CHD

1080p (a1080p, 1080p)
Qualquer Alta Resolução // Any High Definition release, be it full (BD, HDDVD, HDTV stream, BDRip, HDDVDRip, HDTVRip)

Moderador: Moderador

Responder
Avatar do Utilizador
Lost_Rider34
Administrador
Administrador
Mensagens: 10744
Registado: 15 out 2008, 14:07
Localização: Aqui
Contacto:

Ready or Not (2019) *1080p BluRay* - CHD

Mensagem por Lost_Rider34 » 01 dez 2019, 16:24

Imagem
Grace (Samara Weaving) acaba de se casar com o herdeiro milionário de uma família especializada em jogos de tabuleiro. Antes de realmente integrar a família, no entanto, ela é obrigada a participar de uma tradição familiar: um jogo de esconde-esconde pela mansão dos Le Domas. Aos poucos, Grace percebe que a brincadeira inocente é na verdade uma caçada sangrenta contra a recém-casada, em que todas as armas e golpes são permitidos para assassiná-la. A jovem terá a difícil missão de sobreviver aos ataques até o amanhecer.

Ready Or Not follows a young bride (Samara Weaving) as she joins her new husband's (Mark O'Brien) rich, eccentric family (Adam Brody, Henry Czerny, Andie MacDowell) in a time-honored tradition that turns into a lethal game with everyone fighting for their survival.
imdb.com
Ready or Not (2019)

Capa
Sinopse:A bride's wedding night takes a sinister turn when her eccentric new in-laws force her to take part in a terrifying game.
Pontuação:7.0
Duração:95 minutos
Idioma:English
Realizador:Matt Bettinelli-Olpin, Tyler Gillett
Actores:Samara Weaving, Adam Brody, Mark O'Brien, Henry Czerny, Andie MacDowell
  
Fonte:http://www.imdb.com/title/tt7798634
Última Actualização:Domingo Dezembro 01, 2019 16:25

Código: Selecionar todos

Video
 ID : 1
 Format : AVC
 Format/Info : Advanced Video Codec
 Format profile : High@L4.1
 Format settings : CABAC / 4 Ref Frames
 Format settings, CABAC : Yes
 Format settings, Reference frames : 4 frames
 Codec ID : V_MPEG4/ISO/AVC
 Duration : 1 h 35 min
 Bit rate : 10.4 Mb/s
 Width : 1 920 pixels
 Height : 804 pixels
 Display aspect ratio : 2.40:1
 Frame rate mode : Constant
 Frame rate : 23.976 (24000/1001) FPS
 Color space : YUV
 Chroma subsampling : 4:2:0
 Bit depth : 8 bits
 Scan type : Progressive
 Bits/(Pixel*Frame) : 0.282
 Stream size : 6.94 GiB (87%)
 Title : Ready.or.Not.2019.1080p.BluRay.x264.DTS-CHD
 Writing library : x264 core 157 r2867+150 7e91e0e t_mod_Custom_2 [8-bit@all X86_64]
 Encoding settings : cabac=1 / ref=4 / deblock=1:-3:-3 / analyse=0x3:0x133 / me=umh / subme=11 / psy=1 / fade_compensate=0.00 / psy_rd=0.90:0.10 / mixed_ref=1 / me_range=64 / chroma_me=1 / trellis=2 / 8x8dct=1 / cqm=0 / deadzone=21,11 / fast_pskip=0 / chroma_qp_offset=-4 / threads=25 / lookahead_threads=4 / sliced_threads=0 / nr=0 / decimate=1 / interlaced=0 / bluray_compat=0 / constrained_intra=0 / fgo=0 / bframes=8 / b_pyramid=2 / b_adapt=2 / b_bias=0 / direct=3 / weightb=1 / open_gop=0 / weightp=2 / keyint=250 / keyint_min=23 / scenecut=40 / intra_refresh=0 / rc_lookahead=60 / rc=crf / mbtree=0 / crf=18.0000 / qcomp=0.70 / qpmin=0:0:0 / qpmax=69:69:69 / qpstep=4 / vbv_maxrate=35000 / vbv_bufsize=35000 / crf_max=0.0 / nal_hrd=none / filler=0 / ip_ratio=1.40 / pb_ratio=1.30 / aq=3:1.00 / aq-sensitivity=10.00 / aq-factor=1.00:1.00:1.00 / aq2=0 / aq3=0
 Language : English
 Default : Yes
 Forced : No

 Audio
 ID : 2
 Format : DTS
 Format/Info : Digital Theater Systems
 Codec ID : A_DTS
 Duration : 1 h 35 min
 Bit rate mode : Constant
 Bit rate : 1 509 kb/s
 Channel(s) : 6 channels
 Channel layout : C L R Ls Rs LFE
 Sampling rate : 48.0 kHz
 Frame rate : 93.750 FPS (512 SPF)
 Bit depth : 24 bits
 Compression mode : Lossy
 Stream size : 1.01 GiB (13%)
 Title : Ready.or.Not.2019.1080p.BluRay.x264.DTS-CHD
 Language : English
 Default : Yes
 Forced : No

 Text
 ID : 3
 Format : UTF-8
 Codec ID : S_TEXT/UTF8
 Codec ID/Info : UTF-8 Plain Text
 Duration : 1 h 33 min
 Bit rate : 51 b/s
 Count of elements : 1167
 Stream size : 35.4 KiB (0%)
 Language : English
 Default : Yes
 Forced : No
Imagem Imagem
Imagem Imagem
Imagem Imagem

LINKS:

ed2k: Ready.or.Not.2019.1080p.BluRay.x264.DTS-CHD.[TheRostrum.net].mkv  [7.95 Gb]
ed2k: Ready.or.Not.2019.1080p.BluRay.x264.DTS-CHD.[TheRostrum.net].srt  [74.6 Kb]
Não tem Permissão para ver os ficheiros anexados nesta mensagem.
Imagem

Avatar do Utilizador
coutinho
Utilizador
Utilizador
Mensagens: 1507
Registado: 26 out 2011, 11:06

Re: Ready or Not (2019) *1080p BluRay* - CHD

Mensagem por coutinho » 01 dez 2019, 17:15

Vai sair. Obrigado

Responder

Voltar para “Alta Definição // High Definition (Com Legendas/With Subtitles)”