Once Upon a Time in Hollywood (2019) *1080p BluRay* - FGT

1080p (a1080p, 1080p)
Qualquer Alta Resolução // Any High Definition release, be it full (BD, HDDVD, HDTV stream, BDRip, HDDVDRip, HDTVRip)

Moderador: Moderador

Responder
Avatar do Utilizador
Lost_Rider34
Administrador
Administrador
Mensagens: 10744
Registado: 15 out 2008, 14:07
Localização: Aqui
Contacto:

Once Upon a Time in Hollywood (2019) *1080p BluRay* - FGT

Mensagem por Lost_Rider34 » 01 dez 2019, 15:54

Imagem
Los Angeles, 1969. Rick Dalton (Leonardo DiCaprio) é um ator de TV que, juntamente com seu dublê, está decidido a fazer o nome em Hollywood. Para tanto, ele conhece muitas pessoas influentes na indústria cinematográfica, o que os acaba levando aos assassinatos realizados por Charles Manson na época, entre eles o da atriz Sharon Tate (Margot Robbie), que na época estava grávida do diretor Roman Polanski (Rafal Zawierucha).

Quentin Tarantino's ninth feature film is a story that takes place in Los Angeles in 1969, at the height of hippy Hollywood. The two lead characters are Rick Dalton (Leonardo DiCaprio), former star of a western TV series, and his longtime stunt double Cliff Booth (Brad Pitt). Both are struggling to make it in a Hollywood they don't recognize anymore. But Rick has a very famous next-door neighbor...Sharon Tate.
imdb.com
Once Upon a Time ... in Hollywood (2019)

Capa
Sinopse:A faded television actor and his stunt double strive to achieve fame and success in the film industry during the final years of Hollywood's Golden Age in 1969 Los Angeles.
Pontuação:7.9
Duração:161 minutos
Idioma:English, Italian, Spanish
Realizador:Quentin Tarantino
Actores:Leonardo DiCaprio, Brad Pitt, Margot Robbie, Emile Hirsch, Margaret Qualley
  
Fonte:http://www.imdb.com/title/tt7131622
Última Actualização:Domingo Dezembro 01, 2019 15:55

Código: Selecionar todos

Video
 ID : 1
 Format : AVC
 Format/Info : Advanced Video Codec
 Format profile : High@L4.1
 Format settings : CABAC / 5 Ref Frames
 Format settings, CABAC : Yes
 Format settings, Reference frames : 5 frames
 Codec ID : V_MPEG4/ISO/AVC
 Duration : 2 h 41 min
 Bit rate : 9 152 kb/s
 Width : 1 920 pixels
 Height : 800 pixels
 Display aspect ratio : 2.40:1
 Frame rate mode : Constant
 Frame rate : 23.976 (24000/1001) FPS
 Color space : YUV
 Chroma subsampling : 4:2:0
 Bit depth : 8 bits
 Scan type : Progressive
 Bits/(Pixel*Frame) : 0.249
 Stream size : 10.3 GiB (75%)
 Title : Once.Upon.a.Time.in.Hollywood.2019.1080p.BluRay.x264.DTS-HD.MA.7.1-FGT
 Writing library : x264 core 158 r2988 7817004
 Encoding settings : cabac=1 / ref=5 / deblock=1:-3:-3 / analyse=0x3:0x113 / me=umh / subme=8 / psy=1 / psy_rd=1.00:0.00 / mixed_ref=1 / me_range=16 / chroma_me=1 / trellis=1 / 8x8dct=1 / cqm=0 / deadzone=21,11 / fast_pskip=1 / chroma_qp_offset=-2 / threads=25 / lookahead_threads=4 / sliced_threads=0 / nr=0 / decimate=1 / interlaced=0 / bluray_compat=0 / constrained_intra=0 / bframes=3 / b_pyramid=2 / b_adapt=1 / b_bias=0 / direct=3 / weightb=1 / open_gop=0 / weightp=2 / keyint=250 / keyint_min=23 / scenecut=40 / intra_refresh=0 / rc_lookahead=50 / rc=2pass / mbtree=1 / bitrate=9152 / ratetol=1.0 / qcomp=0.60 / qpmin=0 / qpmax=69 / qpstep=4 / cplxblur=20.0 / qblur=0.5 / ip_ratio=1.40 / aq=1:1.00
 Language : English
 Default : Yes
 Forced : No

 Audio
 ID : 2
 Format : DTS XLL
 Format/Info : Digital Theater Systems
 Commercial name : DTS-HD Master Audio
 Codec ID : A_DTS
 Duration : 2 h 41 min
 Bit rate mode : Variable
 Bit rate : 2 560 kb/s
 Channel(s) : 8 channels
 Channel layout : C L R LFE Lb Rb Lss Rss
 Sampling rate : 48.0 kHz
 Frame rate : 93.750 FPS (512 SPF)
 Bit depth : 16 bits
 Compression mode : Lossless
 Stream size : 2.89 GiB (21%)
 Title : Once.Upon.a.Time.in.Hollywood.2019.1080p.BluRay.x264.DTS-HD.MA.7.1-FGT
 Language : English
 Default : Yes
 Forced : No

 Text #1
 ID : 3
 Format : UTF-8
 Codec ID : S_TEXT/UTF8
 Codec ID/Info : UTF-8 Plain Text
 Duration : 2 h 39 min
 Bit rate : 56 b/s
 Count of elements : 2130
 Stream size : 65.8 KiB (0%)
 Title : English-SRT
 Language : English
 Default : Yes
 Forced : No

 Text #2
 ID : 4
 Format : UTF-8
 Codec ID : S_TEXT/UTF8
 Codec ID/Info : UTF-8 Plain Text
 Duration : 2 h 40 min
 Bit rate : 64 b/s
 Count of elements : 2542
 Stream size : 76.3 KiB (0%)
 Title : English-SDH-SRT
 Language : English
 Default : No
 Forced : No

 Text #3
 ID : 5
 Format : PGS
 Muxing mode : zlib
 Codec ID : S_HDMV/PGS
 Codec ID/Info : Picture based subtitle format used on BDs/HD-DVDs
 Duration : 2 h 39 min
 Bit rate : 33.7 kb/s
 Count of elements : 3588
 Stream size : 38.4 MiB (0%)
 Title : English-PGS
 Language : English
 Default : No
 Forced : No

 Text #4
 ID : 6
 Format : PGS
 Muxing mode : zlib
 Codec ID : S_HDMV/PGS
 Codec ID/Info : Picture based subtitle format used on BDs/HD-DVDs
 Duration : 2 h 40 min
 Bit rate : 37.2 kb/s
 Count of elements : 4116
 Stream size : 42.8 MiB (0%)
 Title : English-SDH-PGS
 Language : English
 Default : No
 Forced : No

 Text #5
 ID : 7
 Format : PGS
 Muxing mode : zlib
 Codec ID : S_HDMV/PGS
 Codec ID/Info : Picture based subtitle format used on BDs/HD-DVDs
 Duration : 2 h 40 min
 Bit rate : 16.4 kb/s
 Count of elements : 3499
 Stream size : 18.9 MiB (0%)
 Title : Arabic-PGS
 Language : Arabic
 Default : No
 Forced : No

 Text #6
 ID : 8
 Format : PGS
 Muxing mode : zlib
 Codec ID : S_HDMV/PGS
 Codec ID/Info : Picture based subtitle format used on BDs/HD-DVDs
 Duration : 2 h 40 min
 Bit rate : 27.7 kb/s
 Count of elements : 3530
 Stream size : 31.9 MiB (0%)
 Title : Bulgarian-PGS
 Language : Bulgarian
 Default : No
 Forced : No

 Text #7
 ID : 9
 Format : PGS
 Muxing mode : zlib
 Codec ID : S_HDMV/PGS
 Codec ID/Info : Picture based subtitle format used on BDs/HD-DVDs
 Duration : 2 h 40 min
 Bit rate : 22.1 kb/s
 Count of elements : 3538
 Stream size : 25.5 MiB (0%)
 Title : Chinese-PGS
 Language : Chinese
 Default : No
 Forced : No

 Text #8
 ID : 10
 Format : PGS
 Muxing mode : zlib
 Codec ID : S_HDMV/PGS
 Codec ID/Info : Picture based subtitle format used on BDs/HD-DVDs
 Duration : 2 h 40 min
 Bit rate : 24.8 kb/s
 Count of elements : 3538
 Stream size : 28.5 MiB (0%)
 Title : Chinese-PGS
 Language : Chinese
 Default : No
 Forced : No

 Text #9
 ID : 11
 Format : PGS
 Muxing mode : zlib
 Codec ID : S_HDMV/PGS
 Codec ID/Info : Picture based subtitle format used on BDs/HD-DVDs
 Duration : 2 h 40 min
 Bit rate : 26.0 kb/s
 Count of elements : 3520
 Stream size : 29.9 MiB (0%)
 Title : Chinese-PGS
 Language : Chinese
 Default : No
 Forced : No

 Text #10
 ID : 12
 Format : PGS
 Muxing mode : zlib
 Codec ID : S_HDMV/PGS
 Codec ID/Info : Picture based subtitle format used on BDs/HD-DVDs
 Duration : 2 h 40 min
 Bit rate : 26.6 kb/s
 Count of elements : 3504
 Stream size : 30.6 MiB (0%)
 Title : Croatian-PGS
 Language : Croatian
 Default : No
 Forced : No

 Text #11
 ID : 13
 Format : PGS
 Muxing mode : zlib
 Codec ID : S_HDMV/PGS
 Codec ID/Info : Picture based subtitle format used on BDs/HD-DVDs
 Duration : 2 h 40 min
 Bit rate : 27.7 kb/s
 Count of elements : 3488
 Stream size : 31.9 MiB (0%)
 Title : Czech-PGS
 Language : Czech
 Default : No
 Forced : No

 Text #12
 ID : 14
 Format : PGS
 Muxing mode : zlib
 Codec ID : S_HDMV/PGS
 Codec ID/Info : Picture based subtitle format used on BDs/HD-DVDs
 Duration : 2 h 40 min
 Bit rate : 26.9 kb/s
 Count of elements : 3792
 Stream size : 30.9 MiB (0%)
 Title : Estonian-PGS
 Language : Estonian
 Default : No
 Forced : No

 Text #13
 ID : 15
 Format : PGS
 Muxing mode : zlib
 Codec ID : S_HDMV/PGS
 Codec ID/Info : Picture based subtitle format used on BDs/HD-DVDs
 Duration : 2 h 40 min
 Bit rate : 27.3 kb/s
 Count of elements : 3317
 Stream size : 31.4 MiB (0%)
 Title : French-PGS
 Language : French
 Default : No
 Forced : No

 Text #14
 ID : 16
 Format : PGS
 Muxing mode : zlib
 Codec ID : S_HDMV/PGS
 Codec ID/Info : Picture based subtitle format used on BDs/HD-DVDs
 Duration : 2 h 39 min
 Bit rate : 31.1 kb/s
 Count of elements : 3470
 Stream size : 35.5 MiB (0%)
 Title : Greek-PGS
 Language : Greek
 Default : No
 Forced : No

 Text #15
 ID : 17
 Format : PGS
 Muxing mode : zlib
 Codec ID : S_HDMV/PGS
 Codec ID/Info : Picture based subtitle format used on BDs/HD-DVDs
 Duration : 2 h 40 min
 Bit rate : 22.5 kb/s
 Count of elements : 3498
 Stream size : 25.9 MiB (0%)
 Title : Hebrew-PGS
 Language : Hebrew
 Default : No
 Forced : No

 Text #16
 ID : 18
 Format : PGS
 Muxing mode : zlib
 Codec ID : S_HDMV/PGS
 Codec ID/Info : Picture based subtitle format used on BDs/HD-DVDs
 Duration : 2 h 40 min
 Bit rate : 28.2 kb/s
 Count of elements : 2908
 Stream size : 32.4 MiB (0%)
 Title : Hungarian-PGS
 Language : Hungarian
 Default : No
 Forced : No

 Text #17
 ID : 19
 Format : PGS
 Muxing mode : zlib
 Codec ID : S_HDMV/PGS
 Codec ID/Info : Picture based subtitle format used on BDs/HD-DVDs
 Duration : 2 h 40 min
 Bit rate : 28.8 kb/s
 Count of elements : 3268
 Stream size : 33.1 MiB (0%)
 Title : Icelandic-PGS
 Language : Icelandic
 Default : No
 Forced : No

 Text #18
 ID : 20
 Format : PGS
 Muxing mode : zlib
 Codec ID : S_HDMV/PGS
 Codec ID/Info : Picture based subtitle format used on BDs/HD-DVDs
 Duration : 2 h 40 min
 Bit rate : 29.9 kb/s
 Count of elements : 3394
 Stream size : 34.4 MiB (0%)
 Title : Indonesian-PGS
 Language : Indonesian
 Default : No
 Forced : No

 Text #19
 ID : 21
 Format : PGS
 Muxing mode : zlib
 Codec ID : S_HDMV/PGS
 Codec ID/Info : Picture based subtitle format used on BDs/HD-DVDs
 Duration : 2 h 40 min
 Bit rate : 22.4 kb/s
 Count of elements : 3539
 Stream size : 25.7 MiB (0%)
 Title : Korean-PGS
 Language : Korean
 Default : No
 Forced : No

 Text #20
 ID : 22
 Format : PGS
 Muxing mode : zlib
 Codec ID : S_HDMV/PGS
 Codec ID/Info : Picture based subtitle format used on BDs/HD-DVDs
 Duration : 2 h 40 min
 Bit rate : 27.7 kb/s
 Count of elements : 3728
 Stream size : 31.8 MiB (0%)
 Title : Latvian-PGS
 Language : Latvian
 Default : No
 Forced : No

 Text #21
 ID : 23
 Format : PGS
 Muxing mode : zlib
 Codec ID : S_HDMV/PGS
 Codec ID/Info : Picture based subtitle format used on BDs/HD-DVDs
 Duration : 2 h 40 min
 Bit rate : 27.2 kb/s
 Count of elements : 3468
 Stream size : 31.2 MiB (0%)
 Title : Lithuanian-PGS
 Language : Lithuanian
 Default : No
 Forced : No

 Text #22
 ID : 24
 Format : PGS
 Muxing mode : zlib
 Codec ID : S_HDMV/PGS
 Codec ID/Info : Picture based subtitle format used on BDs/HD-DVDs
 Duration : 2 h 40 min
 Bit rate : 26.9 kb/s
 Count of elements : 3474
 Stream size : 30.9 MiB (0%)
 Title : Polish-PGS
 Language : Polish
 Default : No
 Forced : No

 Text #23
 ID : 25
 Format : PGS
 Muxing mode : zlib
 Codec ID : S_HDMV/PGS
 Codec ID/Info : Picture based subtitle format used on BDs/HD-DVDs
 Duration : 2 h 40 min
 Bit rate : 29.5 kb/s
 Count of elements : 3414
 Stream size : 33.9 MiB (0%)
 Title : Portuguese-PGS
 Language : Portuguese
 Default : No
 Forced : No

 Text #24
 ID : 26
 Format : PGS
 Muxing mode : zlib
 Codec ID : S_HDMV/PGS
 Codec ID/Info : Picture based subtitle format used on BDs/HD-DVDs
 Duration : 2 h 40 min
 Bit rate : 30.4 kb/s
 Count of elements : 3510
 Stream size : 35.0 MiB (0%)
 Title : Portuguese-PGS
 Language : Portuguese
 Default : No
 Forced : No

 Text #25
 ID : 27
 Format : PGS
 Muxing mode : zlib
 Codec ID : S_HDMV/PGS
 Codec ID/Info : Picture based subtitle format used on BDs/HD-DVDs
 Duration : 2 h 40 min
 Bit rate : 29.1 kb/s
 Count of elements : 3334
 Stream size : 33.5 MiB (0%)
 Title : Romanian-PGS
 Language : Romanian
 Default : No
 Forced : No

 Text #26
 ID : 28
 Format : PGS
 Muxing mode : zlib
 Codec ID : S_HDMV/PGS
 Codec ID/Info : Picture based subtitle format used on BDs/HD-DVDs
 Duration : 2 h 40 min
 Bit rate : 27.8 kb/s
 Count of elements : 3532
 Stream size : 32.0 MiB (0%)
 Title : Russian-PGS
 Language : Russian
 Default : No
 Forced : No

 Text #27
 ID : 29
 Format : PGS
 Muxing mode : zlib
 Codec ID : S_HDMV/PGS
 Codec ID/Info : Picture based subtitle format used on BDs/HD-DVDs
 Duration : 2 h 40 min
 Bit rate : 27.9 kb/s
 Count of elements : 3532
 Stream size : 32.1 MiB (0%)
 Title : Serbian-PGS
 Language : Serbian
 Default : No
 Forced : No

 Text #28
 ID : 30
 Format : PGS
 Muxing mode : zlib
 Codec ID : S_HDMV/PGS
 Codec ID/Info : Picture based subtitle format used on BDs/HD-DVDs
 Duration : 2 h 40 min
 Bit rate : 25.2 kb/s
 Count of elements : 3518
 Stream size : 28.9 MiB (0%)
 Title : Slovak-PGS
 Language : Slovak
 Default : No
 Forced : No

 Text #29
 ID : 31
 Format : PGS
 Muxing mode : zlib
 Codec ID : S_HDMV/PGS
 Codec ID/Info : Picture based subtitle format used on BDs/HD-DVDs
 Duration : 2 h 40 min
 Bit rate : 25.5 kb/s
 Count of elements : 3036
 Stream size : 29.4 MiB (0%)
 Title : Slovenian-PGS
 Language : Slovenian
 Default : No
 Forced : No

 Text #30
 ID : 32
 Format : PGS
 Muxing mode : zlib
 Codec ID : S_HDMV/PGS
 Codec ID/Info : Picture based subtitle format used on BDs/HD-DVDs
 Duration : 2 h 40 min
 Bit rate : 29.6 kb/s
 Count of elements : 3462
 Stream size : 34.1 MiB (0%)
 Title : Spanish-PGS
 Language : Spanish
 Default : No
 Forced : No

 Text #31
 ID : 33
 Format : PGS
 Muxing mode : zlib
 Codec ID : S_HDMV/PGS
 Codec ID/Info : Picture based subtitle format used on BDs/HD-DVDs
 Duration : 2 h 40 min
 Bit rate : 25.3 kb/s
 Count of elements : 3526
 Stream size : 29.1 MiB (0%)
 Title : Thai-PGS
 Language : Thai
 Default : No
 Forced : No

 Text #32
 ID : 34
 Format : PGS
 Muxing mode : zlib
 Codec ID : S_HDMV/PGS
 Codec ID/Info : Picture based subtitle format used on BDs/HD-DVDs
 Duration : 2 h 36 min
 Bit rate : 997 b/s
 Count of elements : 112
 Stream size : 1.12 MiB (0%)
 Title : French-PGS
 Language : French
 Default : No
 Forced : No

 Menu
 00:00:00.000 : en:00:00:00.000
 00:04:49.414 : en:00:04:49.414
 00:13:45.199 : en:00:13:45.199
 00:18:29.150 : en:00:18:29.150
 00:22:00.319 : en:00:22:00.319
 00:25:59.349 : en:00:25:59.349
 00:28:41.094 : en:00:28:41.094
 00:33:45.106 : en:00:33:45.106
 00:40:19.334 : en:00:40:19.334
 00:49:59.455 : en:00:49:59.455
 00:51:48.689 : en:00:51:48.689
 00:59:52.255 : en:00:59:52.255
 01:02:32.874 : en:01:02:32.874
 01:04:28.615 : en:01:04:28.615
 01:09:16.736 : en:01:09:16.736
 01:17:40.781 : en:01:17:40.781
 01:20:25.779 : en:01:20:25.779
 01:26:28.433 : en:01:26:28.433
 01:32:54.444 : en:01:32:54.444
 01:39:58.492 : en:01:39:58.492
 01:47:55.219 : en:01:47:55.219
 01:53:00.232 : en:01:53:00.232
 01:58:09.541 : en:01:58:09.541
 02:06:23.993 : en:02:06:23.993
 02:11:22.958 : en:02:11:22.958
 02:15:50.100 : en:02:15:50.100
 02:21:30.190 : en:02:21:30.190
 02:29:50.732 : en:02:29:50.732
 02:36:28.254 : en:02:36:28.254
 02:38:51.230 : en:02:38:51.230
Imagem Imagem
Imagem Imagem
Imagem Imagem
Imagem Imagem

phpBB [video]


LINKS:

ed2k: Once.Upon.a.Time.in.Hollywood.2019.1080p.BluRay.x264.DTS-HD.MA.7.1-FGT.[TheRostrum.net].mkv  [13.70 Gb]
ed2k: Once.Upon.a.Time.in.Hollywood.2019.1080p.BluRay.x264.DTS-HD.MA.7.1-FGT.[TheRostrum.net].srt  [126.9 Kb]
Não tem Permissão para ver os ficheiros anexados nesta mensagem.
Imagem

Responder

Voltar para “Alta Definição // High Definition (Com Legendas/With Subtitles)”