Stuber (2019) *1080p BluRay* - FGT

1080p (a1080p, 1080p)
Qualquer Alta Resolução // Any High Definition release, be it full (BD, HDDVD, HDTV stream, BDRip, HDDVDRip, HDTVRip)

Moderador: Moderador

Responder
Avatar do Utilizador
Lost_Rider34
Administrador
Administrador
Mensagens: 10730
Registado: 15 out 2008, 14:07
Localização: Aqui
Contacto:

Stuber (2019) *1080p BluRay* - FGT

Mensagem por Lost_Rider34 » 08 out 2019, 15:31

Imagem
Quando Stu (Kumail Nanjiani), um motorista da Uber, é recrutado por um policial (Dave Bautista) para ajudá-lo a investigar o paradeiro de um brutal assassino, algumas regras precisam ser quebradas. Seguindo as poucas pistas que possuem para seguir o traço do criminoso, eles cada vez se complicam mais na perseguição desenfreada.

When a mild-mannered Uber driver named Stu (Kumail Nanjiani) picks up a passenger (Dave Bautista) who turns out to be a cop hot on the trail of a brutal killer, he's thrust into a harrowing ordeal where he desperately tries to hold onto his wits, his life and his five-star rating.
imdb.com
Stuber (2019)

Capa
Sinopse:A detective recruits his Uber driver into an unexpected night of adventure.
Pontuação:6.2
Duração:93 minutos
Idioma:English
Realizador:Michael Dowse
Actores:Dave Bautista, Kumail Nanjiani, Mira Sorvino, Natalie Morales, Iko Uwais
  
Fonte:http://www.imdb.com/title/tt7734218
Última Actualização:Segunda Outubro 07, 2019 14:46

Código: Selecionar todos

Video
 ID : 1
 Format : AVC
 Format/Info : Advanced Video Codec
 Format profile : High@L4.1
 Format settings : CABAC / 5 Ref Frames
 Format settings, CABAC : Yes
 Format settings, Reference frames : 5 frames
 Codec ID : V_MPEG4/ISO/AVC
 Duration : 1 h 33 min
 Bit rate : 8 543 kb/s
 Width : 1 920 pixels
 Height : 808 pixels
 Display aspect ratio : 2.40:1
 Frame rate mode : Constant
 Frame rate : 23.976 (24000/1001) FPS
 Color space : YUV
 Chroma subsampling : 4:2:0
 Bit depth : 8 bits
 Scan type : Progressive
 Bits/(Pixel*Frame) : 0.230
 Stream size : 5.57 GiB (64%)
 Title : Stuber.2019.1080p.BluRay.x264.TrueHD.7.1.Atmos-FGT
 Writing library : x264 core 158 r2984 3759fcb
 Encoding settings : cabac=1 / ref=5 / deblock=1:-3:-3 / analyse=0x3:0x113 / me=umh / subme=8 / psy=1 / psy_rd=1.00:0.00 / mixed_ref=1 / me_range=16 / chroma_me=1 / trellis=1 / 8x8dct=1 / cqm=0 / deadzone=21,11 / fast_pskip=1 / chroma_qp_offset=-2 / threads=25 / lookahead_threads=4 / sliced_threads=0 / nr=0 / decimate=1 / interlaced=0 / bluray_compat=0 / constrained_intra=0 / bframes=3 / b_pyramid=2 / b_adapt=1 / b_bias=0 / direct=3 / weightb=1 / open_gop=0 / weightp=2 / keyint=250 / keyint_min=23 / scenecut=40 / intra_refresh=0 / rc_lookahead=50 / rc=2pass / mbtree=1 / bitrate=8543 / ratetol=1.0 / qcomp=0.60 / qpmin=0 / qpmax=69 / qpstep=4 / cplxblur=20.0 / qblur=0.5 / ip_ratio=1.40 / aq=1:1.00
 Language : English
 Default : Yes
 Forced : No

 Audio #1
 ID : 2
 Format : MLP FBA 16-ch
 Format/Info : Meridian Lossless Packing FBA with 16-channel presentation
 Commercial name : Dolby TrueHD with Dolby Atmos
 Codec ID : A_TRUEHD
 Duration : 1 h 33 min
 Bit rate mode : Variable
 Bit rate : 3 937 kb/s
 Maximum bit rate : 6 696 kb/s
 Channel(s) : 8 channels
 Channel layout : L R C LFE Ls Rs Lb Rb
 Sampling rate : 48.0 kHz
 Frame rate : 1 200.000 FPS (40 SPF)
 Compression mode : Lossless
 Stream size : 2.57 GiB (29%)
 Title : Stuber.2019.1080p.BluRay.x264.TrueHD.7.1.Atmos-FGT
 Language : English
 Default : Yes
 Forced : No
 Number of dynamic objects : 13
 Bed channel count : 1 channel
 Bed channel configuration : LFE

 Audio #2
 ID : 3
 Format : AC-3
 Format/Info : Audio Coding 3
 Commercial name : Dolby Digital
 Codec ID : A_AC3
 Duration : 1 h 33 min
 Bit rate mode : Constant
 Bit rate : 640 kb/s
 Channel(s) : 6 channels
 Channel layout : L R C LFE Ls Rs
 Sampling rate : 48.0 kHz
 Frame rate : 31.250 FPS (1536 SPF)
 Bit depth : 16 bits
 Compression mode : Lossy
 Stream size : 428 MiB (5%)
 Title : Stuber.2019.1080p.BluRay.x264.TrueHD.7.1.Atmos-FGT
 Language : English
 Service kind : Complete Main
 Default : No
 Forced : No

 Text #1
 ID : 4
 Format : UTF-8
 Codec ID : S_TEXT/UTF8
 Codec ID/Info : UTF-8 Plain Text
 Duration : 1 h 26 min
 Bit rate : 84 b/s
 Count of elements : 1967
 Stream size : 54.0 KiB (0%)
 Title : English-SRT
 Language : English
 Default : Yes
 Forced : No

 Text #2
 ID : 5
 Format : PGS
 Muxing mode : zlib
 Codec ID : S_HDMV/PGS
 Codec ID/Info : Picture based subtitle format used on BDs/HD-DVDs
 Duration : 1 h 27 min
 Bit rate : 62.4 kb/s
 Count of elements : 4306
 Stream size : 38.9 MiB (0%)
 Title : English-PGS
 Language : English
 Default : No
 Forced : No

 Text #3
 ID : 6
 Format : PGS
 Muxing mode : zlib
 Codec ID : S_HDMV/PGS
 Codec ID/Info : Picture based subtitle format used on BDs/HD-DVDs
 Duration : 1 h 32 min
 Bit rate : 47.6 kb/s
 Count of elements : 3592
 Stream size : 31.5 MiB (0%)
 Title : Spanish-PGS
 Language : Spanish
 Default : No
 Forced : No

 Text #4
 ID : 7
 Format : PGS
 Muxing mode : zlib
 Codec ID : S_HDMV/PGS
 Codec ID/Info : Picture based subtitle format used on BDs/HD-DVDs
 Duration : 1 h 32 min
 Bit rate : 43.5 kb/s
 Count of elements : 3572
 Stream size : 28.8 MiB (0%)
 Title : French-PGS
 Language : French
 Default : No
 Forced : No

 Text #5
 ID : 8
 Format : PGS
 Muxing mode : zlib
 Codec ID : S_HDMV/PGS
 Codec ID/Info : Picture based subtitle format used on BDs/HD-DVDs
 Duration : 1 h 32 min
 Bit rate : 43.9 kb/s
 Count of elements : 3262
 Stream size : 29.1 MiB (0%)
 Title : Spanish-PGS
 Language : Spanish
 Default : No
 Forced : No

 Text #6
 ID : 9
 Format : PGS
 Muxing mode : zlib
 Codec ID : S_HDMV/PGS
 Codec ID/Info : Picture based subtitle format used on BDs/HD-DVDs
 Duration : 1 h 32 min
 Bit rate : 41.9 kb/s
 Count of elements : 2234
 Stream size : 27.7 MiB (0%)
 Title : Danish-PGS
 Language : Danish
 Default : No
 Forced : No

 Text #7
 ID : 10
 Format : PGS
 Muxing mode : zlib
 Codec ID : S_HDMV/PGS
 Codec ID/Info : Picture based subtitle format used on BDs/HD-DVDs
 Duration : 1 h 32 min
 Bit rate : 38.9 kb/s
 Count of elements : 2362
 Stream size : 25.7 MiB (0%)
 Title : Dutch-PGS
 Language : Dutch
 Default : No
 Forced : No

 Text #8
 ID : 11
 Format : PGS
 Muxing mode : zlib
 Codec ID : S_HDMV/PGS
 Codec ID/Info : Picture based subtitle format used on BDs/HD-DVDs
 Duration : 1 h 32 min
 Bit rate : 42.0 kb/s
 Count of elements : 3584
 Stream size : 27.8 MiB (0%)
 Title : Finnish-PGS
 Language : Finnish
 Default : No
 Forced : No

 Text #9
 ID : 12
 Format : PGS
 Muxing mode : zlib
 Codec ID : S_HDMV/PGS
 Codec ID/Info : Picture based subtitle format used on BDs/HD-DVDs
 Duration : 1 h 32 min
 Bit rate : 46.3 kb/s
 Count of elements : 3386
 Stream size : 30.7 MiB (0%)
 Title : German-PGS
 Language : German
 Default : No
 Forced : No

 Text #10
 ID : 13
 Format : PGS
 Muxing mode : zlib
 Codec ID : S_HDMV/PGS
 Codec ID/Info : Picture based subtitle format used on BDs/HD-DVDs
 Duration : 1 h 32 min
 Bit rate : 41.6 kb/s
 Count of elements : 3624
 Stream size : 27.5 MiB (0%)
 Title : Italian-PGS
 Language : Italian
 Default : No
 Forced : No

 Text #11
 ID : 14
 Format : PGS
 Muxing mode : zlib
 Codec ID : S_HDMV/PGS
 Codec ID/Info : Picture based subtitle format used on BDs/HD-DVDs
 Duration : 1 h 32 min
 Bit rate : 44.0 kb/s
 Count of elements : 3622
 Stream size : 29.1 MiB (0%)
 Title : Norwegian-PGS
 Language : Norwegian
 Default : No
 Forced : No

 Text #12
 ID : 15
 Format : PGS
 Muxing mode : zlib
 Codec ID : S_HDMV/PGS
 Codec ID/Info : Picture based subtitle format used on BDs/HD-DVDs
 Duration : 1 h 32 min
 Bit rate : 43.0 kb/s
 Count of elements : 3620
 Stream size : 28.5 MiB (0%)
 Title : Swedish-PGS
 Language : Swedish
 Default : No
 Forced : No

 Text #13
 ID : 16
 Format : PGS
 Muxing mode : zlib
 Codec ID : S_HDMV/PGS
 Codec ID/Info : Picture based subtitle format used on BDs/HD-DVDs
 Duration : 1 h 32 min
 Bit rate : 43.7 kb/s
 Count of elements : 3626
 Stream size : 29.0 MiB (0%)
 Title : Czech-PGS
 Language : Czech
 Default : No
 Forced : No

 Text #14
 ID : 17
 Format : PGS
 Muxing mode : zlib
 Codec ID : S_HDMV/PGS
 Codec ID/Info : Picture based subtitle format used on BDs/HD-DVDs
 Duration : 1 h 32 min
 Bit rate : 44.2 kb/s
 Count of elements : 3588
 Stream size : 29.3 MiB (0%)
 Title : Hungarian-PGS
 Language : Hungarian
 Default : No
 Forced : No

 Text #15
 ID : 18
 Format : PGS
 Muxing mode : zlib
 Codec ID : S_HDMV/PGS
 Codec ID/Info : Picture based subtitle format used on BDs/HD-DVDs
 Duration : 1 h 32 min
 Bit rate : 29.0 kb/s
 Count of elements : 3626
 Stream size : 19.2 MiB (0%)
 Title : Korean-PGS
 Language : Korean
 Default : No
 Forced : No

 Text #16
 ID : 19
 Format : PGS
 Muxing mode : zlib
 Codec ID : S_HDMV/PGS
 Codec ID/Info : Picture based subtitle format used on BDs/HD-DVDs
 Duration : 1 h 33 min
 Bit rate : 45.0 kb/s
 Count of elements : 3976
 Stream size : 30.0 MiB (0%)
 Title : Korean-PGS
 Language : Korean
 Default : No
 Forced : No

 Menu
 00:00:00.000 : en:Chapter 01
 00:05:52.643 : en:Chapter 02
 00:09:56.846 : en:Chapter 03
 00:14:14.854 : en:Chapter 04
 00:17:30.591 : en:Chapter 05
 00:19:46.059 : en:Chapter 06
 00:22:40.275 : en:Chapter 07
 00:27:33.401 : en:Chapter 08
 00:31:30.680 : en:Chapter 09
 00:33:18.955 : en:Chapter 10
 00:35:39.887 : en:Chapter 11
 00:40:13.035 : en:Chapter 12
 00:45:05.202 : en:Chapter 13
 00:49:10.113 : en:Chapter 14
 00:52:36.987 : en:Chapter 15
 00:56:46.111 : en:Chapter 16
 01:01:54.001 : en:Chapter 17
 01:05:43.397 : en:Chapter 18
 01:08:37.196 : en:Chapter 19
 01:13:31.156 : en:Chapter 20
 01:16:44.516 : en:Chapter 21
 01:19:07.200 : en:Chapter 22
 01:23:54.779 : en:Chapter 23
 01:27:49.597 : en:Chapter 24
Imagem Imagem
Imagem Imagem

phpBB [video]



LINKS:

ed2k: Stuber.2019.1080p.BluRay.x264.TrueHD.7.1.Atmos-FGT.mkv  [8.74 Gb]
ed2k: Stuber.2019.1080p.BluRay.x264.TrueHD.7.1.Atmos-FGT.srt  [135.0 Kb]
Não tem Permissão para ver os ficheiros anexados nesta mensagem.
Imagem

Avatar do Utilizador
coutinho
Utilizador
Utilizador
Mensagens: 1505
Registado: 26 out 2011, 11:06

Re: Stuber (2019) *1080p BluRay* - FGT

Mensagem por coutinho » 08 out 2019, 21:18

Vai sair. Obrigado

Responder

Voltar para “Alta Definição // High Definition (Com Legendas/With Subtitles)”