X-Man: Dark Phoenix (2019) [REMUX] *1080p BluRay* - FGT

1080p (a1080p, 1080p)
Qualquer Alta Resolução // Any High Definition release, be it full (BD, HDDVD, HDTV stream, BDRip, HDDVDRip, HDTVRip)

Moderador: Moderador

Responder
Avatar do Utilizador
Lost_Rider34
Administrador
Administrador
Mensagens: 10736
Registado: 15 out 2008, 14:07
Localização: Aqui
Contacto:

X-Man: Dark Phoenix (2019) [REMUX] *1080p BluRay* - FGT

Mensagem por Lost_Rider34 » 18 set 2019, 22:42

Imagem
Ambientado em 1992, Charles Xavier está lidando com o fato dos mutantes serem considerados heróis nacionais. Com o orgulho a flor da pele, ele envia sua equipe para perigosas missões, mas a primeira tarefa dos X-Men no espaço gera uma explosão solar, que acende uma força malévola e faminta por poder dentro de Jean Grey.

In DARK PHOENIX, the X-MEN face their most formidable and powerful foe: one of their own, Jean Grey. During a rescue mission in space, Jean is nearly killed when she is hit by a mysterious cosmic force. Once she returns home, this force not only makes her infinitely more powerful, but far more unstable. Wrestling with this entity inside her, Jean unleashes her powers in ways she can neither comprehend nor contain. With Jean spiraling out of control, and hurting the ones she loves most, she begins to unravel the very fabric that holds the X-Men together. Now, with this family falling apart, they must find a way to unite -- not only to save Jean's soul, but to save our very planet from aliens who wish to weaponize this force and rule the galaxy.
imdb.com
Dark Phoenix (2019)

Capa
Sinopse:Jean Grey begins to develop incredible powers that corrupt and turn her into a Dark Phoenix. Now the X-Men will have to decide if the life of a team member is worth more than all of humanity.
Pontuação:6.0
Duração:113 minutos
Idioma:English, French
Realizador:Simon Kinberg
Actores:James McAvoy, Michael Fassbender, Jennifer Lawrence, Nicholas Hoult, Sophie Turner
  
Fonte:http://www.imdb.com/title/tt6565702
Última Actualização:Quinta Agosto 29, 2019 19:45

Código: Selecionar todos

Video
 ID : 1
 Format : AVC
 Format/Info : Advanced Video Codec
 Format profile : High@L4.1
 Format settings : CABAC / 4 Ref Frames
 Format settings, CABAC : Yes
 Format settings, Reference frames : 4 frames
 Codec ID : V_MPEG4/ISO/AVC
 Duration : 1 h 53 min
 Bit rate mode : Variable
 Bit rate : 24.6 Mb/s
 Maximum bit rate : 31.0 Mb/s
 Width : 1 920 pixels
 Height : 1 080 pixels
 Display aspect ratio : 16:9
 Frame rate mode : Constant
 Frame rate : 23.976 (24000/1001) FPS
 Color space : YUV
 Chroma subsampling : 4:2:0
 Bit depth : 8 bits
 Scan type : Progressive
 Bits/(Pixel*Frame) : 0.494
 Stream size : 19.6 GiB (73%)
 Title : Dark.Phoenix.2019.1080p.BluRay.REMUX.AVC.DTS-HD.MA.7.1-FGT
 Language : English
 Default : No
 Forced : No

 Audio #1
 ID : 2
 Format : DTS XLL
 Format/Info : Digital Theater Systems
 Commercial name : DTS-HD Master Audio
 Codec ID : A_DTS
 Duration : 1 h 53 min
 Bit rate mode : Variable
 Bit rate : 5 074 kb/s
 Channel(s) : 8 channels
 Channel layout : C L R LFE Lb Rb Lss Rss
 Sampling rate : 48.0 kHz
 Frame rate : 93.750 FPS (512 SPF)
 Bit depth : 24 bits
 Compression mode : Lossless
 Stream size : 4.04 GiB (15%)
 Title : Dark.Phoenix.2019.1080p.BluRay.REMUX.AVC.DTS-HD.MA.7.1-FGT
 Language : English
 Default : Yes
 Forced : No

 Audio #2
 ID : 3
 Format : AC-3
 Format/Info : Audio Coding 3
 Commercial name : Dolby Digital
 Codec ID : A_AC3
 Duration : 1 h 53 min
 Bit rate mode : Constant
 Bit rate : 448 kb/s
 Channel(s) : 6 channels
 Channel layout : L R C LFE Ls Rs
 Sampling rate : 48.0 kHz
 Frame rate : 31.250 FPS (1536 SPF)
 Bit depth : 16 bits
 Compression mode : Lossy
 Stream size : 365 MiB (1%)
 Title : Dark.Phoenix.2019.1080p.BluRay.REMUX.AVC.DTS-HD.MA.7.1-FGT
 Language : English
 Service kind : Complete Main
 Default : No
 Forced : No

 Audio #3
 ID : 4
 Format : DTS
 Format/Info : Digital Theater Systems
 Codec ID : A_DTS
 Duration : 1 h 53 min
 Bit rate mode : Constant
 Bit rate : 768 kb/s
 Channel(s) : 6 channels
 Channel layout : C L R Ls Rs LFE
 Sampling rate : 48.0 kHz
 Frame rate : 93.750 FPS (512 SPF)
 Bit depth : 24 bits
 Compression mode : Lossy
 Stream size : 626 MiB (2%)
 Title : Dark.Phoenix.2019.1080p.BluRay.REMUX.AVC.DTS-HD.MA.7.1-FGT
 Language : Russian
 Default : No
 Forced : No

 Audio #4
 ID : 5
 Format : AC-3
 Format/Info : Audio Coding 3
 Commercial name : Dolby Digital
 Codec ID : A_AC3
 Duration : 1 h 53 min
 Bit rate mode : Constant
 Bit rate : 448 kb/s
 Channel(s) : 6 channels
 Channel layout : L R C LFE Ls Rs
 Sampling rate : 48.0 kHz
 Frame rate : 31.250 FPS (1536 SPF)
 Bit depth : 16 bits
 Compression mode : Lossy
 Stream size : 365 MiB (1%)
 Title : Dark.Phoenix.2019.1080p.BluRay.REMUX.AVC.DTS-HD.MA.7.1-FGT
 Language : Hindi
 Service kind : Complete Main
 Default : No
 Forced : No

 Audio #5
 ID : 6
 Format : AC-3
 Format/Info : Audio Coding 3
 Commercial name : Dolby Digital
 Codec ID : A_AC3
 Duration : 1 h 53 min
 Bit rate mode : Constant
 Bit rate : 448 kb/s
 Channel(s) : 6 channels
 Channel layout : L R C LFE Ls Rs
 Sampling rate : 48.0 kHz
 Frame rate : 31.250 FPS (1536 SPF)
 Bit depth : 16 bits
 Compression mode : Lossy
 Stream size : 365 MiB (1%)
 Title : Dark.Phoenix.2019.1080p.BluRay.REMUX.AVC.DTS-HD.MA.7.1-FGT
 Language : Tamil
 Service kind : Complete Main
 Default : No
 Forced : No

 Audio #6
 ID : 7
 Format : AC-3
 Format/Info : Audio Coding 3
 Commercial name : Dolby Digital
 Codec ID : A_AC3
 Duration : 1 h 53 min
 Bit rate mode : Constant
 Bit rate : 448 kb/s
 Channel(s) : 6 channels
 Channel layout : L R C LFE Ls Rs
 Sampling rate : 48.0 kHz
 Frame rate : 31.250 FPS (1536 SPF)
 Bit depth : 16 bits
 Compression mode : Lossy
 Stream size : 365 MiB (1%)
 Title : Dark.Phoenix.2019.1080p.BluRay.REMUX.AVC.DTS-HD.MA.7.1-FGT
 Language : Ukrainian
 Service kind : Complete Main
 Default : No
 Forced : No

 Audio #7
 ID : 8
 Format : AC-3
 Format/Info : Audio Coding 3
 Commercial name : Dolby Digital
 Codec ID : A_AC3
 Duration : 1 h 53 min
 Bit rate mode : Constant
 Bit rate : 224 kb/s
 Channel(s) : 2 channels
 Channel layout : L R
 Sampling rate : 48.0 kHz
 Frame rate : 31.250 FPS (1536 SPF)
 Bit depth : 16 bits
 Compression mode : Lossy
 Stream size : 183 MiB (1%)
 Title : Dark.Phoenix.2019.1080p.BluRay.REMUX.AVC.DTS-HD.MA.7.1-FGT
 Language : English
 Service kind : Complete Main
 Default : No
 Forced : No

 Audio #8
 ID : 9
 Format : AC-3
 Format/Info : Audio Coding 3
 Commercial name : Dolby Digital
 Codec ID : A_AC3
 Duration : 1 h 53 min
 Bit rate mode : Constant
 Bit rate : 448 kb/s
 Channel(s) : 6 channels
 Channel layout : L R C LFE Ls Rs
 Sampling rate : 48.0 kHz
 Frame rate : 31.250 FPS (1536 SPF)
 Bit depth : 16 bits
 Compression mode : Lossy
 Stream size : 365 MiB (1%)
 Title : Dark.Phoenix.2019.1080p.BluRay.REMUX.AVC.DTS-HD.MA.7.1-FGT
 Language : Telugu
 Service kind : Complete Main
 Default : No
 Forced : No

 Audio #9
 ID : 10
 Format : AC-3
 Format/Info : Audio Coding 3
 Commercial name : Dolby Digital
 Codec ID : A_AC3
 Duration : 1 h 53 min
 Bit rate mode : Constant
 Bit rate : 448 kb/s
 Channel(s) : 6 channels
 Channel layout : L R C LFE Ls Rs
 Sampling rate : 48.0 kHz
 Frame rate : 31.250 FPS (1536 SPF)
 Bit depth : 16 bits
 Compression mode : Lossy
 Stream size : 365 MiB (1%)
 Title : Dark.Phoenix.2019.1080p.BluRay.REMUX.AVC.DTS-HD.MA.7.1-FGT
 Language : Urdu
 Service kind : Complete Main
 Default : No
 Forced : No

 Text #1
 ID : 11
 Format : UTF-8
 Codec ID : S_TEXT/UTF8
 Codec ID/Info : UTF-8 Plain Text
 Duration : 31 min 20 s
 Bit rate : 0 b/s
 Count of elements : 4
 Stream size : 168 Bytes (0%)
 Title : English-FORCED-SRT
 Language : English
 Default : Yes
 Forced : No

 Text #2
 ID : 12
 Format : UTF-8
 Codec ID : S_TEXT/UTF8
 Codec ID/Info : UTF-8 Plain Text
 Duration : 1 h 43 min
 Bit rate : 41 b/s
 Count of elements : 1134
 Stream size : 31.6 KiB (0%)
 Title : English-SRT
 Language : English
 Default : No
 Forced : No

 Text #3
 ID : 13
 Format : UTF-8
 Codec ID : S_TEXT/UTF8
 Codec ID/Info : UTF-8 Plain Text
 Duration : 1 h 44 min
 Bit rate : 46 b/s
 Count of elements : 1365
 Stream size : 35.9 KiB (0%)
 Title : English-SDH-SRT
 Language : English
 Default : No
 Forced : No

 Text #4
 ID : 14
 Format : PGS
 Muxing mode : zlib
 Codec ID : S_HDMV/PGS
 Codec ID/Info : Picture based subtitle format used on BDs/HD-DVDs
 Duration : 1 h 53 min
 Bit rate : 27.8 kb/s
 Count of elements : 2830
 Stream size : 22.6 MiB (0%)
 Title : English-PGS
 Language : English
 Default : No
 Forced : No

 Text #5
 ID : 15
 Format : PGS
 Muxing mode : zlib
 Codec ID : S_HDMV/PGS
 Codec ID/Info : Picture based subtitle format used on BDs/HD-DVDs
 Duration : 1 h 52 min
 Bit rate : 19.3 kb/s
 Count of elements : 1594
 Stream size : 15.6 MiB (0%)
 Title : Danish-PGS
 Language : Danish
 Default : No
 Forced : No

 Text #6
 ID : 16
 Format : PGS
 Muxing mode : zlib
 Codec ID : S_HDMV/PGS
 Codec ID/Info : Picture based subtitle format used on BDs/HD-DVDs
 Duration : 1 h 52 min
 Bit rate : 20.5 kb/s
 Count of elements : 2202
 Stream size : 16.6 MiB (0%)
 Title : Norwegian-PGS
 Language : Norwegian
 Default : No
 Forced : No

 Text #7
 ID : 17
 Format : PGS
 Muxing mode : zlib
 Codec ID : S_HDMV/PGS
 Codec ID/Info : Picture based subtitle format used on BDs/HD-DVDs
 Duration : 1 h 52 min
 Bit rate : 21.5 kb/s
 Count of elements : 2200
 Stream size : 17.3 MiB (0%)
 Title : Russian-PGS
 Language : Russian
 Default : No
 Forced : No

 Text #8
 ID : 18
 Format : PGS
 Muxing mode : zlib
 Codec ID : S_HDMV/PGS
 Codec ID/Info : Picture based subtitle format used on BDs/HD-DVDs
 Duration : 1 h 46 min
 Bit rate : 237 b/s
 Count of elements : 20
 Stream size : 185 KiB (0%)
 Title : Russian-FORCED-PGS
 Language : Russian
 Default : No
 Forced : No

 Text #9
 ID : 19
 Format : PGS
 Muxing mode : zlib
 Codec ID : S_HDMV/PGS
 Codec ID/Info : Picture based subtitle format used on BDs/HD-DVDs
 Duration : 1 h 52 min
 Bit rate : 21.1 kb/s
 Count of elements : 2202
 Stream size : 17.1 MiB (0%)
 Title : Swedish-PGS
 Language : Swedish
 Default : No
 Forced : No

 Text #10
 ID : 20
 Format : PGS
 Muxing mode : zlib
 Codec ID : S_HDMV/PGS
 Codec ID/Info : Picture based subtitle format used on BDs/HD-DVDs
 Duration : 1 h 52 min
 Bit rate : 22.0 kb/s
 Count of elements : 2198
 Stream size : 17.8 MiB (0%)
 Title : Estonian-PGS
 Language : Estonian
 Default : No
 Forced : No

 Text #11
 ID : 21
 Format : PGS
 Muxing mode : zlib
 Codec ID : S_HDMV/PGS
 Codec ID/Info : Picture based subtitle format used on BDs/HD-DVDs
 Duration : 1 h 52 min
 Bit rate : 21.6 kb/s
 Count of elements : 2204
 Stream size : 17.4 MiB (0%)
 Title : Latvian-PGS
 Language : Latvian
 Default : No
 Forced : No

 Text #12
 ID : 22
 Format : PGS
 Muxing mode : zlib
 Codec ID : S_HDMV/PGS
 Codec ID/Info : Picture based subtitle format used on BDs/HD-DVDs
 Duration : 1 h 52 min
 Bit rate : 20.4 kb/s
 Count of elements : 2200
 Stream size : 16.5 MiB (0%)
 Title : Lithuanian-PGS
 Language : Lithuanian
 Default : No
 Forced : No

 Text #13
 ID : 23
 Format : PGS
 Muxing mode : zlib
 Codec ID : S_HDMV/PGS
 Codec ID/Info : Picture based subtitle format used on BDs/HD-DVDs
 Duration : 1 h 52 min
 Bit rate : 28.8 kb/s
 Count of elements : 2198
 Stream size : 23.2 MiB (0%)
 Title : Tamil-PGS
 Language : Tamil
 Default : No
 Forced : No

 Text #14
 ID : 24
 Format : PGS
 Muxing mode : zlib
 Codec ID : S_HDMV/PGS
 Codec ID/Info : Picture based subtitle format used on BDs/HD-DVDs
 Duration : 1 h 26 min
 Bit rate : 323 b/s
 Count of elements : 18
 Stream size : 205 KiB (0%)
 Title : Tamil-FORCED-PGS
 Language : Tamil
 Default : No
 Forced : No

 Text #15
 ID : 25
 Format : PGS
 Muxing mode : zlib
 Codec ID : S_HDMV/PGS
 Codec ID/Info : Picture based subtitle format used on BDs/HD-DVDs
 Duration : 1 h 52 min
 Bit rate : 21.9 kb/s
 Count of elements : 2198
 Stream size : 17.7 MiB (0%)
 Title : Telugu-PGS
 Language : Telugu
 Default : No
 Forced : No

 Text #16
 ID : 26
 Format : PGS
 Muxing mode : zlib
 Codec ID : S_HDMV/PGS
 Codec ID/Info : Picture based subtitle format used on BDs/HD-DVDs
 Duration : 1 h 26 min
 Bit rate : 244 b/s
 Count of elements : 18
 Stream size : 155 KiB (0%)
 Title : Telugu-FORCED-PGS
 Language : Telugu
 Default : No
 Forced : No

 Text #17
 ID : 27
 Format : PGS
 Muxing mode : zlib
 Codec ID : S_HDMV/PGS
 Codec ID/Info : Picture based subtitle format used on BDs/HD-DVDs
 Duration : 1 h 53 min
 Bit rate : 64.3 kb/s
 Count of elements : 4348
 Stream size : 52.3 MiB (0%)
 Title : Danish-COMMENTARY-PGS
 Language : Danish
 Default : No
 Forced : No

 Text #18
 ID : 28
 Format : PGS
 Muxing mode : zlib
 Codec ID : S_HDMV/PGS
 Codec ID/Info : Picture based subtitle format used on BDs/HD-DVDs
 Duration : 1 h 53 min
 Bit rate : 65.4 kb/s
 Count of elements : 4348
 Stream size : 53.2 MiB (0%)
 Title : Norwegian-COMMENTARY-PGS
 Language : Norwegian
 Default : No
 Forced : No

 Text #19
 ID : 29
 Format : PGS
 Muxing mode : zlib
 Codec ID : S_HDMV/PGS
 Codec ID/Info : Picture based subtitle format used on BDs/HD-DVDs
 Duration : 1 h 53 min
 Bit rate : 62.4 kb/s
 Count of elements : 4334
 Stream size : 50.7 MiB (0%)
 Title : Russian-COMMENTARY-PGS
 Language : Russian
 Default : No
 Forced : No

 Text #20
 ID : 30
 Format : PGS
 Muxing mode : zlib
 Codec ID : S_HDMV/PGS
 Codec ID/Info : Picture based subtitle format used on BDs/HD-DVDs
 Duration : 1 h 53 min
 Bit rate : 76.4 kb/s
 Count of elements : 4348
 Stream size : 62.2 MiB (0%)
 Title : Swedish-COMMENTARY-PGS
 Language : Swedish
 Default : No
 Forced : No

 Text #21
 ID : 31
 Format : PGS
 Muxing mode : zlib
 Codec ID : S_HDMV/PGS
 Codec ID/Info : Picture based subtitle format used on BDs/HD-DVDs
 Duration : 1 h 52 min
 Bit rate : 20.4 kb/s
 Count of elements : 2198
 Stream size : 16.5 MiB (0%)
 Title : Finnish-COMMENTARY-PGS
 Language : Finnish
 Default : No
 Forced : No

 Text #22
 ID : 32
 Format : PGS
 Muxing mode : zlib
 Codec ID : S_HDMV/PGS
 Codec ID/Info : Picture based subtitle format used on BDs/HD-DVDs
 Duration : 1 h 53 min
 Bit rate : 75.5 kb/s
 Count of elements : 4364
 Stream size : 61.4 MiB (0%)
 Title : English-COMMENTARY-PGS
 Language : English
 Default : No
 Forced : No

 Text #23
 ID : 33
 Format : PGS
 Muxing mode : zlib
 Codec ID : S_HDMV/PGS
 Codec ID/Info : Picture based subtitle format used on BDs/HD-DVDs
 Duration : 1 h 52 min
 Bit rate : 18.3 kb/s
 Count of elements : 2200
 Stream size : 14.8 MiB (0%)
 Title : Hindi-PGS
 Language : Hindi
 Default : No
 Forced : No

 Text #24
 ID : 34
 Format : PGS
 Muxing mode : zlib
 Codec ID : S_HDMV/PGS
 Codec ID/Info : Picture based subtitle format used on BDs/HD-DVDs
 Duration : 1 h 26 min
 Bit rate : 205 b/s
 Count of elements : 18
 Stream size : 130 KiB (0%)
 Title : Hindi-FORCED-PGS
 Language : Hindi
 Default : No
 Forced : No

 Text #25
 ID : 35
 Format : PGS
 Muxing mode : zlib
 Codec ID : S_HDMV/PGS
 Codec ID/Info : Picture based subtitle format used on BDs/HD-DVDs
 Duration : 1 h 52 min
 Bit rate : 21.7 kb/s
 Count of elements : 2206
 Stream size : 17.5 MiB (0%)
 Title : Ukranian-PGS
 Language : Ukrainian
 Default : No
 Forced : No

 Text #26
 ID : 36
 Format : PGS
 Muxing mode : zlib
 Codec ID : S_HDMV/PGS
 Codec ID/Info : Picture based subtitle format used on BDs/HD-DVDs
 Duration : 1 h 52 min
 Bit rate : 181 b/s
 Count of elements : 20
 Stream size : 150 KiB (0%)
 Title : Ukranian-FORCED-PGS
 Language : Ukrainian
 Default : No
 Forced : No

 Text #27
 ID : 37
 Format : PGS
 Muxing mode : zlib
 Codec ID : S_HDMV/PGS
 Codec ID/Info : Picture based subtitle format used on BDs/HD-DVDs
 Duration : 1 h 53 min
 Bit rate : 62.5 kb/s
 Count of elements : 4342
 Stream size : 50.8 MiB (0%)
 Title : Finnish-COMMENTARY-PGS
 Language : Finnish
 Default : No
 Forced : No

 Text #28
 ID : 38
 Format : PGS
 Muxing mode : zlib
 Codec ID : S_HDMV/PGS
 Codec ID/Info : Picture based subtitle format used on BDs/HD-DVDs
 Duration : 31 min 20 s
 Bit rate : 268 b/s
 Count of elements : 8
 Stream size : 61.6 KiB (0%)
 Title : English-FORCED-PGS
 Language : English
 Default : No
 Forced : No

 Text #29
 ID : 39
 Format : PGS
 Muxing mode : zlib
 Codec ID : S_HDMV/PGS
 Codec ID/Info : Picture based subtitle format used on BDs/HD-DVDs
 Duration : 31 min 20 s
 Bit rate : 268 b/s
 Count of elements : 8
 Stream size : 61.6 KiB (0%)
 Title : English-FORCED-PGS
 Language : English
 Default : No
 Forced : No

 Menu
 00:00:00.000 : en:Chapter 01
 00:03:28.875 : en:Chapter 02
 00:07:34.620 : en:Chapter 03
 00:11:42.201 : en:Chapter 04
 00:15:44.109 : en:Chapter 05
 00:18:37.407 : en:Chapter 06
 00:25:24.481 : en:Chapter 07
 00:31:40.356 : en:Chapter 08
 00:34:19.307 : en:Chapter 09
 00:40:07.446 : en:Chapter 10
 00:44:36.090 : en:Chapter 11
 00:49:07.778 : en:Chapter 12
 00:55:38.168 : en:Chapter 13
 00:58:57.408 : en:Chapter 14
 01:02:57.190 : en:Chapter 15
 01:10:40.110 : en:Chapter 16
 01:13:42.418 : en:Chapter 17
 01:19:33.477 : en:Chapter 18
 01:22:35.700 : en:Chapter 19
 01:25:49.060 : en:Chapter 20
 01:30:38.349 : en:Chapter 21
 01:32:48.187 : en:Chapter 22
 01:37:59.623 : en:Chapter 23
 01:45:01.044 : en:Chapter 24
Imagem Imagem
Imagem Imagem
Imagem Imagem
Imagem Imagem

phpBB [video]



Link:

ed2k: Dark.Phoenix.2019.1080p.BluRay.REMUX.AVC.DTS-HD.MA.7.1-FGT.mkv  [26.74 Gb]
ed2k: Dark.Phoenix.2019.1080p.BluRay.REMUX.AVC.DTS-HD.MA.7.1-FGT.srt  [72.1 Kb]
Não tem Permissão para ver os ficheiros anexados nesta mensagem.
Imagem

Responder

Voltar para “Alta Definição // High Definition (Com Legendas/With Subtitles)”