Alita: Battle Angel (2019) *1080p BluRay* - FGT

1080p (a1080p, 1080p)
Qualquer Alta Resolução // Any High Definition release, be it full (BD, HDDVD, HDTV stream, BDRip, HDDVDRip, HDTVRip)

Moderador: Moderador

Responder
Avatar do Utilizador
Lost_Rider34
Administrador
Administrador
Mensagens: 10712
Registado: 15 out 2008, 14:07
Localização: Aqui
Contacto:

Alita: Battle Angel (2019) *1080p BluRay* - FGT

Mensagem por Lost_Rider34 » 16 jul 2019, 15:27

Imagem
Uma ciborgue é descoberta por um cientista. Ela não tem memórias de sua criação, mas possui grande conhecimento de artes marciais. Enquanto busca informações sobre seu passado, trabalha como caçadora de recompensas e descobre um interesse amoroso.

From visionary filmmakers James Cameron (AVATAR) and Robert Rodriguez (SIN CITY), comes ALITA: BATTLE ANGEL, an epic adventure of hope and empowerment. When Alita (Rosa Salazar) awakens with no memory of who she is in a future world she does not recognize, she is taken in by Ido (Christoph Waltz), a compassionate doctor who realizes that somewhere in this abandoned cyborg shell is the heart and soul of a young woman with an extraordinary past. As Alita learns to navigate her new life and the treacherous streets of Iron City, Ido tries to shield her from her mysterious history while her street-smart new friend Hugo (Keean Johnson) offers instead to help trigger her memories. But it is only when the deadly and corrupt forces that run the city come after Alita that she discovers a clue to her past - she has unique fighting abilities that those in power will stop at nothing to control. If she can stay out of their grasp, she could be the key to saving her friends, her family and the world she's grown to love.
imdb.com
Alita: Battle Angel (2019)

Capa
Sinopse:A deactivated female cyborg is revived, but cannot remember anything of her past life and goes on a quest to find out who she is.
Pontuação:7.5
Duração:122 minutos
Idioma:English, Spanish
Realizador:Robert Rodriguez
Actores:Rosa Salazar, Christoph Waltz, Jennifer Connelly, Mahershala Ali, Ed Skrein
  
Fonte:http://www.imdb.com/title/tt0437086
Última Actualização:Quarta Julho 10, 2019 21:11

Código: Selecionar todos

Video
 ID : 1
 Format : AVC
 Format/Info : Advanced Video Codec
 Format profile : High@L4.1
 Format settings : CABAC / 5 Ref Frames
 Format settings, CABAC : Yes
 Format settings, ReFrames : 5 frames
 Codec ID : V_MPEG4/ISO/AVC
 Duration : 2 h 1 min
 Bit rate : 10.0 Mb/s
 Width : 1 920 pixels
 Height : 808 pixels
 Display aspect ratio : 2.40:1
 Frame rate mode : Constant
 Frame rate : 23.976 (24000/1001) FPS
 Color space : YUV
 Chroma subsampling : 4:2:0
 Bit depth : 8 bits
 Scan type : Progressive
 Bits/(Pixel*Frame) : 0.270
 Stream size : 8.55 GiB (67%)
 Title : Alita.Battle.Angel.2019.1080p.BluRay.x264.DTS-HD.MA.7.1-FGT
 Writing library : x264 core 157 r2970 5493be8
 Encoding settings : cabac=1 / ref=5 / deblock=1:-3:-3 / analyse=0x3:0x113 / me=umh / subme=8 / psy=1 / psy_rd=1.00:0.00 / mixed_ref=1 / me_range=16 / chroma_me=1 / trellis=1 / 8x8dct=1 / cqm=0 / deadzone=21,11 / fast_pskip=1 / chroma_qp_offset=-2 / threads=25 / lookahead_threads=4 / sliced_threads=0 / nr=0 / decimate=1 / interlaced=0 / bluray_compat=0 / constrained_intra=0 / bframes=3 / b_pyramid=2 / b_adapt=1 / b_bias=0 / direct=3 / weightb=1 / open_gop=0 / weightp=2 / keyint=250 / keyint_min=23 / scenecut=40 / intra_refresh=0 / rc_lookahead=50 / rc=2pass / mbtree=1 / bitrate=10039 / ratetol=1.0 / qcomp=0.60 / qpmin=0 / qpmax=69 / qpstep=4 / cplxblur=20.0 / qblur=0.5 / ip_ratio=1.40 / aq=1:1.00
 Language : English
 Default : Yes
 Forced : No

 Audio
 ID : 2
 Format : DTS ES XLL
 Format/Info : Digital Theater Systems
 Commercial name : DTS-HD Master Audio
 Codec ID : A_DTS
 Duration : 2 h 1 min
 Bit rate mode : Variable
 Bit rate : 4 893 kb/s
 Channel(s) : 8 channels
 Channel layout : C L R Ls Rs LFE Lb Rb
 Sampling rate : 48.0 kHz
 Frame rate : 93.750 FPS (512 SPF)
 Bit depth : 24 bits
 Compression mode : Lossless
 Stream size : 4.17 GiB (33%)
 Title : Alita.Battle.Angel.2019.1080p.BluRay.x264.DTS-HD.MA.7.1-FGT
 Language : English
 Default : Yes
 Forced : No

 Text #1
 ID : 3
 Format : UTF-8
 Codec ID : S_TEXT/UTF8
 Codec ID/Info : UTF-8 Plain Text
 Duration : 1 h 55 min
 Bit rate : 41 b/s
 Count of elements : 1347
 Stream size : 34.8 KiB (0%)
 Title : English-SRT
 Language : English
 Default : Yes
 Forced : No

 Text #2
 ID : 4
 Format : UTF-8
 Codec ID : S_TEXT/UTF8
 Codec ID/Info : UTF-8 Plain Text
 Duration : 1 h 55 min
 Bit rate : 46 b/s
 Count of elements : 1588
 Stream size : 39.2 KiB (0%)
 Title : English-SDH-SRT
 Language : English
 Default : No
 Forced : No

 Text #3
 ID : 5
 Format : PGS
 Muxing mode : zlib
 Codec ID : S_HDMV/PGS
 Codec ID/Info : Picture based subtitle format used on BDs/HD-DVDs
 Duration : 1 h 58 min
 Bit rate : 30.6 kb/s
 Count of elements : 3180
 Stream size : 26.0 MiB (0%)
 Title : English-PGS
 Language : English
 Default : No
 Forced : No

 Menu
 00:00:00.000 : :绗?01 绔?
00:03:28.625 : :绗?02 绔?
00:07:51.680 : :绗?03 绔?
00:10:07.982 : :绗?04 绔?
00:13:06.703 : :绗?05 绔?
00:15:06.739 : :绗?06 绔?
00:18:04.542 : :绗?07 绔?
00:22:58.711 : :绗?08 绔?
00:25:35.325 : :绗?09 绔?
00:31:40.899 : :绗?10 绔?
00:33:29.216 : :绗?11 绔?
00:36:32.816 : :绗?12 绔?
00:38:30.892 : :绗?13 绔?
00:42:05.481 : :绗?14 绔?
00:45:58.214 : :绗?15 绔?
00:48:31.450 : :绗?16 绔?
00:52:57.007 : :绗?17 绔?
00:55:14.353 : :绗?18 绔?
01:00:39.761 : :绗?19 绔?
01:02:56.564 : :绗?20 绔?
01:05:16.788 : :绗?21 绔?
01:10:50.496 : :绗?22 绔?
01:13:37.288 : :绗?23 绔?
01:16:35.216 : :绗?24 绔?
01:18:52.227 : :绗?25 绔?
01:22:48.297 : :绗?26 绔?
01:24:55.340 : :绗?27 绔?
01:28:25.217 : :绗?28 绔?
01:33:18.551 : :绗?29 绔?
01:36:08.763 : :绗?30 绔?
01:41:54.692 : :绗?31 绔?
01:45:23.442 : :绗?32 绔?
01:48:16.490 : :绗?33 绔?
01:51:43.655 : :绗?34 绔?
01:54:43.668 : :绗?35 绔?
01:56:51.504 : :绗?36 绔?
Imagem Imagem
Imagem Imagem
Imagem Imagem


phpBB [video]



LINKS:

ed2k: Alita.Battle.Angel.2019.1080p.BluRay.x264.DTS-HD.MA.7.1-FGT.mkv  [12.73 Gb]
ed2k: Alita.Battle.Angel.2019.1080p.BluRay.x264.DTS-HD.MA.7.1-FGT.srt  [82.9 Kb]
Não tem Permissão para ver os ficheiros anexados nesta mensagem.
Imagem

Imagem

Avatar do Utilizador
coutinho
Utilizador
Utilizador
Mensagens: 1494
Registado: 26 out 2011, 11:06

Re: Alita: Battle Angel (2019) *1080p BluRay* - FGT

Mensagem por coutinho » 16 jul 2019, 18:25

Vai sair. Obrigado

Responder

Voltar para “Alta Definição // High Definition (Com Legendas/With Subtitles)”