Glass (2019) *1080p BluRay* - MT

1080p (a1080p, 1080p)
Qualquer Alta Resolução // Any High Definition release, be it full (BD, HDDVD, HDTV stream, BDRip, HDDVDRip, HDTVRip)

Moderador: Moderador

Responder
Avatar do Utilizador
Lost_Rider34
Administrador
Administrador
Mensagens: 10712
Registado: 15 out 2008, 14:07
Localização: Aqui
Contacto:

Glass (2019) *1080p BluRay* - MT

Mensagem por Lost_Rider34 » 18 abr 2019, 15:03

Imagem
Após os eventos de “Fragmentado”, Elijah Price (Samuel L. Jackson), também conhecido como Mr. Glass, descobre que David Dunn (Bruce Willis) está perseguindo Kevin (James McAvoy) e sua figura super-humana, A Fera. Em uma série de encontros crescentes, a sombria presença de Glass surge como um orquestrador que detém segredos críticos para ambos os homens.

From Unbreakable, Bruce Willis returns as David Dunn as does Samuel L. Jackson as Elijah Price, known also by his pseudonym Mr. Glass. Joining from Split are James McAvoy, reprising his role as Kevin Wendell Crumb and the multiple identities who reside within, and Anya Taylor-Joy as Casey Cooke, the only captive to survive an encounter with The Beast. Following the conclusion of Split, Glass finds Dunn pursuing Crumb's superhuman figure of The Beast in a series of escalating encounters, while the shadowy presence of Price emerges as an orchestrator who holds secrets critical to both men.
imdb.com
Glass (2019)

Capa
Sinopse:Security guard David Dunn uses his supernatural abilities to track Kevin Wendell Crumb, a disturbed man who has twenty-four personalities.
Pontuação:6.9
Duração:129 minutos
Idioma:English, Spanish
Realizador:M. Night Shyamalan
Actores:James McAvoy, Bruce Willis, Samuel L. Jackson, Anya Taylor-Joy, Sarah Paulson
  
Fonte:http://www.imdb.com/title/tt6823368
Última Actualização:Quinta Abril 18, 2019 14:05

Código: Selecionar todos

Video
 ID : 1
 Format : AVC
 Format/Info : Advanced Video Codec
 Format profile : High@L4.1
 Format settings : CABAC / 5 Ref Frames
 Format settings, CABAC : Yes
 Format settings, ReFrames : 5 frames
 Codec ID : V_MPEG4/ISO/AVC
 Duration : 2 h 9 min
 Bit rate : 13.3 Mb/s
 Width : 1 920 pixels
 Height : 804 pixels
 Display aspect ratio : 2.40:1
 Frame rate mode : Constant
 Frame rate : 23.976 (24000/1001) FPS
 Color space : YUV
 Chroma subsampling : 4:2:0
 Bit depth : 8 bits
 Scan type : Progressive
 Bits/(Pixel*Frame) : 0.360
 Stream size : 12.0 GiB (73%)
 Writing library : x264 core 157 r2938 2b00a84 TnP@MTeam Mod
 Encoding settings : cabac=1 / ref=5 / deblock=1:-3:-3 / analyse=0x3:0x133 / me=umh / subme=10 / psy=1 / psy_rd=1.05:0.00 / mixed_ref=1 / me_range=32 / chroma_me=1 / trellis=2 / 8x8dct=1 / cqm=0 / deadzone=21,11 / fast_pskip=0 / chroma_qp_offset=-2 / threads=12 / lookahead_threads=2 / sliced_threads=0 / nr=0 / decimate=0 / interlaced=0 / bluray_compat=0 / constrained_intra=0 / bframes=8 / b_pyramid=2 / b_adapt=2 / b_bias=0 / direct=3 / weightb=1 / open_gop=0 / weightp=2 / keyint=250 / keyint_min=24 / scenecut=40 / intra_refresh=0 / rc_lookahead=250 / rc=crf / mbtree=0 / crf=15.5 / qcomp=0.60 / qpmin=0 / qpmax=69 / qpstep=4 / vbv_maxrate=62500 / vbv_bufsize=78125 / crf_max=0.0 / nal_hrd=none / filler=0 / ip_ratio=1.30 / pb_ratio=1.20 / aq=3:0.80
 Language : English
 Default : Yes
 Forced : No
 Color range : Limited
 Color primaries : BT.709
 Matrix coefficients : BT.709

 Audio #1
 ID : 2
 Format : MLP FBA 16-ch
 Format/Info : Meridian Lossless Packing FBA with 16-channel presentation
 Commercial name : Dolby TrueHD with Dolby Atmos
 Codec ID : A_TRUEHD
 Duration : 2 h 9 min
 Bit rate mode : Variable
 Bit rate : 4 109 kb/s
 Maximum bit rate : 7 326 kb/s
 Channel(s) : 8 channels
 Channel layout : L R C LFE Ls Rs Lb Rb
 Sampling rate : 48.0 kHz
 Frame rate : 1 200.000 FPS (40 SPF)
 Compression mode : Lossless
 Stream size : 3.70 GiB (23%)
 Language : English
 Default : Yes
 Forced : No
 Number of dynamic objects : 11
 Bed channel count : 1 channel
 Bed channel configuration : LFE

 Audio #2
 ID : 3
 Format : AC-3
 Format/Info : Audio Coding 3
 Commercial name : Dolby Digital
 Codec ID : A_AC3
 Duration : 2 h 9 min
 Bit rate mode : Constant
 Bit rate : 640 kb/s
 Channel(s) : 6 channels
 Channel layout : L R C LFE Ls Rs
 Sampling rate : 48.0 kHz
 Frame rate : 31.250 FPS (1536 SPF)
 Bit depth : 16 bits
 Compression mode : Lossy
 Stream size : 591 MiB (4%)
 Language : English
 Service kind : Complete Main
 Default : No
 Forced : No

 Text #1
 ID : 4
 Format : UTF-8
 Codec ID : S_TEXT/UTF8
 Codec ID/Info : UTF-8 Plain Text
 Duration : 2 h 1 min
 Bit rate : 43 b/s
 Count of elements : 1197
 Stream size : 38.9 KiB (0%)
 Title : English-SRT
 Language : English
 Default : Yes
 Forced : No

 Text #2
 ID : 5
 Format : UTF-8
 Codec ID : S_TEXT/UTF8
 Codec ID/Info : UTF-8 Plain Text
 Duration : 2 h 2 min
 Bit rate : 50 b/s
 Count of elements : 1561
 Stream size : 45.7 KiB (0%)
 Title : English-SDH-SRT
 Language : English
 Default : No
 Forced : No

 Text #3
 ID : 6
 Format : PGS
 Muxing mode : zlib
 Codec ID : S_HDMV/PGS
 Codec ID/Info : Picture based subtitle format used on BDs/HD-DVDs
 Duration : 2 h 2 min
 Bit rate : 36.1 kb/s
 Count of elements : 3130
 Stream size : 31.6 MiB (0%)
 Title : English-PGS
 Language : English
 Default : No
 Forced : No

 Menu
 00:00:00.000 : en:Chapter 01
 00:04:08.457 : en:Chapter 02
 00:09:36.367 : en:Chapter 03
 00:14:30.078 : en:Chapter 04
 00:19:49.897 : en:Chapter 05
 00:24:41.063 : en:Chapter 06
 00:29:45.826 : en:Chapter 07
 00:35:00.598 : en:Chapter 08
 00:39:07.595 : en:Chapter 09
 00:47:28.220 : en:Chapter 10
 00:57:16.224 : en:Chapter 11
 01:02:55.271 : en:Chapter 12
 01:09:26.829 : en:Chapter 13
 01:14:30.299 : en:Chapter 14
 01:21:43.774 : en:Chapter 15
 01:30:10.530 : en:Chapter 16
 01:38:15.515 : en:Chapter 17
 01:44:08.742 : en:Chapter 18
 01:54:07.215 : en:Chapter 19
 02:03:00.290 : en:Chapter 20
Imagem Imagem
Imagem Imagem
Imagem Imagem

phpBB [video]



LINKS:

ed2k: Glass.2019.1080p.BluRay.x264.TrueHD.7.1.Atmos-MT.mkv  [16.35 Gb]
ed2k: Glass.2019.1080p.BluRay.x264.TrueHD.7.1.Atmos-MT.srt  [90.6 Kb]
Não tem Permissão para ver os ficheiros anexados nesta mensagem.
Imagem

Avatar do Utilizador
coutinho
Utilizador
Utilizador
Mensagens: 1495
Registado: 26 out 2011, 11:06

Re: Glass (2019) *1080p BluRay* - MT

Mensagem por coutinho » 18 abr 2019, 18:35

Vai sair. Obrigado

Responder

Voltar para “Alta Definição // High Definition (Com Legendas/With Subtitles)”