Creed II (2018) *1080p BluRay* - HDC

1080p (a1080p, 1080p)
Qualquer Alta Resolução // Any High Definition release, be it full (BD, HDDVD, HDTV stream, BDRip, HDDVDRip, HDTVRip)

Moderador: Moderador

Responder
Avatar do Utilizador
Lost_Rider34
Administrador
Administrador
Mensagens: 10712
Registado: 15 out 2008, 14:07
Localização: Aqui
Contacto:

Creed II (2018) *1080p BluRay* - HDC

Mensagem por Lost_Rider34 » 23 fev 2019, 13:55

Imagem
Adonis Creed (Michael B. Jordan) saiu mais forte do que nunca de sua luta contra 'Pretty' Ricky Conlan (Tony Bellew), e segue sua trajetória rumo ao campeonato mundial de boxe, contra toda a desconfiança que acompanha a sombra de seu pai e com o apoio de Rocky (Sylvester Stallone). Sua próxima luta não será tão simples, ele precisa enfrentar um adversário que possui uma forte ligação com o passado de sua família, o que torna tudo ainda mais complexo.

Life has become a balancing act for Adonis Creed. Between personal obligations and training for his next big fight, he is up against the challenge of his life. Facing an opponent with ties to his family's past only intensifies his impending battle in the ring. Rocky Balboa is there by his side through it all and, together, Rocky and Adonis will confront their shared legacy, question what's worth fighting for, and discover that nothing's more important than family. Creed II is about going back to basics to rediscover what made you a champion in the first place, and remembering that, no matter where you go, you can't escape your history.
imdb.com
Creed II (2018)

Capa
Sinopse:Under the tutelage of Rocky Balboa, heavyweight contender Adonis Creed faces off against Viktor Drago, son of Ivan Drago.
Pontuação:7.6
Duração:130 minutos
Idioma:English, Russian
Realizador:Steven Caple Jr.
Actores:Michael B. Jordan, Sylvester Stallone, Tessa Thompson, Phylicia Rashad, Dolph Lundgren
  
Fonte:http://www.imdb.com/title/tt6343314
Última Actualização:Quinta Fevereiro 14, 2019 16:59

Código: Selecionar todos

Video
 ID : 1
 Format : AVC
 Format/Info : Advanced Video Codec
 Format profile : High@L4.1
 Format settings : CABAC / 5 Ref Frames
 Format settings, CABAC : Yes
 Format settings, ReFrames : 5 frames
 Codec ID : V_MPEG4/ISO/AVC
 Duration : 2 h 10 min
 Bit rate : 13.3 Mb/s
 Width : 1 920 pixels
 Height : 804 pixels
 Display aspect ratio : 2.40:1
 Frame rate mode : Constant
 Frame rate : 23.976 (24000/1001) FPS
 Color space : YUV
 Chroma subsampling : 4:2:0
 Bit depth : 8 bits
 Scan type : Progressive
 Bits/(Pixel*Frame) : 0.359
 Stream size : 12.1 GiB (90%)
 Title : Creed.II.2018.1080p.BluRay.x264.DTS-HDC
 Writing library : x264 core 148 r2665kMod a01e339
 Encoding settings : cabac=1 / ref=5 / deblock=1:-3:-3 / analyse=0x3:0x133 / me=umh / subme=11 / psy=1 / fade_compensate=0.00 / psy_rd=0.85:0.00 / mixed_ref=1 / me_range=48 / chroma_me=1 / trellis=2 / 8x8dct=1 / cqm=0 / deadzone=21,11 / fast_pskip=0 / chroma_qp_offset=-2 / threads=24 / lookahead_threads=4 / sliced_threads=0 / nr=0 / decimate=0 / interlaced=0 / bluray_compat=0 / constrained_intra=0 / fgo=0 / bframes=8 / b_pyramid=2 / b_adapt=2 / b_bias=0 / direct=3 / weightb=1 / open_gop=0 / weightp=2 / keyint=240 / keyint_min=24 / scenecut=40 / intra_refresh=0 / rc=2pass / mbtree=0 / bitrate=13300 / ratetol=1.0 / qcomp=0.70 / qpmin=0 / qpmax=69 / qpstep=4 / cplxblur=20.0 / qblur=0.5 / ip_ratio=1.20 / pb_ratio=1.20 / aq=3:0.80
 Default : Yes
 Forced : No

 Audio
 ID : 2
 Format : DTS
 Format/Info : Digital Theater Systems
 Codec ID : A_DTS
 Duration : 2 h 10 min
 Bit rate mode : Constant
 Bit rate : 1 509 kb/s
 Channel(s) : 6 channels
 Channel layout : C L R Ls Rs LFE
 Sampling rate : 48.0 kHz
 Frame rate : 93.750 FPS (512 SPF)
 Bit depth : 24 bits
 Compression mode : Lossy
 Stream size : 1.37 GiB (10%)
 Title : Creed.II.2018.1080p.BluRay.x264.DTS-HDC
 Language : English
 Default : Yes
 Forced : No

 Text #1
 ID : 3
 Format : UTF-8
 Codec ID : S_TEXT/UTF8
 Codec ID/Info : UTF-8 Plain Text
 Duration : 2 h 5 min
 Bit rate : 48 b/s
 Count of elements : 1529
 Stream size : 44.5 KiB (0%)
 Language : English
 Default : Yes
 Forced : No

 Text #2
 ID : 4
 Format : UTF-8
 Codec ID : S_TEXT/UTF8
 Codec ID/Info : UTF-8 Plain Text
 Duration : 2 h 9 min
 Bit rate : 54 b/s
 Count of elements : 1775
 Stream size : 51.9 KiB (0%)
 Title : SDH
 Language : English
 Default : No
 Forced : No

 Menu
 00:00:00.000 : en:00:00:00.000
 00:11:33.151 : en:00:11:33.151
 00:20:06.163 : en:00:20:06.163
 00:33:28.006 : en:00:33:28.006
 00:43:49.126 : en:00:43:49.126
 00:57:51.885 : en:00:57:51.885
 01:06:38.870 : en:01:06:38.870
 01:20:12.516 : en:01:20:12.516
 01:31:01.956 : en:01:31:01.956
 01:40:14.217 : en:01:40:14.217
 01:50:31.458 : en:01:50:31.458
 02:02:55.910 : en:02:02:55.910
phpBB [video]



LINKS:

ed2k: Creed.II.2018.1080p.BluRay.x264.DTS-HDC.mkv  [13.43 Gb]
ed2k: Creed.II.2018.1080p.BluRay.x264.DTS-HDC.srt  [104.6 Kb]
Não tem Permissão para ver os ficheiros anexados nesta mensagem.
Imagem

Avatar do Utilizador
coutinho
Utilizador
Utilizador
Mensagens: 1495
Registado: 26 out 2011, 11:06

Re: Creed II (2018) *1080p BluRay* - HDC

Mensagem por coutinho » 23 fev 2019, 16:11

Vai sair. Obrigado

Responder

Voltar para “Alta Definição // High Definition (Com Legendas/With Subtitles)”