Ladies in Black (2018) *1080p BluRay* - FGT

1080p (a1080p, 1080p)
Qualquer Alta Resolução // Any High Definition release, be it full (BD, HDDVD, HDTV stream, BDRip, HDDVDRip, HDTVRip)

Moderador: Moderador

Responder
Avatar do Utilizador
Lost_Rider34
Administrador
Administrador
Mensagens: 10715
Registado: 15 out 2008, 14:07
Localização: Aqui
Contacto:

Ladies in Black (2018) *1080p BluRay* - FGT

Mensagem por Lost_Rider34 » 22 jan 2019, 11:16

Imagem
Uma dramédia doce sobre a vida de um grupo de vendedoras de uma loja de departamentos, na Austrália dos anos 50.

Set in the summer of 1959, when the impact of European migration and the rise of women's liberation is about to change Australia forever, a shy schoolgirl (Lisa) takes a summer job at the prestigious Sydney department store, Goode's. There she meets the 'ladies in black', who will change her life forever. Beguiled and influenced by Magda, the vivacious manager of the high-fashion floor, and befriended by fellow sales ladies Patty and Fay, Lisa is awakened to a world of possibilities. As Lisa grows from a bookish schoolgirl to a glamorous and positive young woman, she herself becomes a catalyst for a cultural change in everyone's lives.
imdb.com
Ladies in Black (2018)

Capa
Sinopse:Adapted from the bestselling novel by Madeleine St John, Ladies in Black is an alluring and tender-hearted comedy drama about the lives of a group of department store employees in 1959 Sydney.
Pontuação:6.7
Duração:109 minutos
Idioma:English
Realizador:Bruce Beresford
Actores:Rachael Taylor, Julia Ormond, Angourie Rice, Vincent Perez, Nicholas Hammond
  
Fonte:http://www.imdb.com/title/tt6684884
Última Actualização:Domingo Dezembro 23, 2018 19:15

Código: Selecionar todos

Video
 ID : 1
 Format : AVC
 Format/Info : Advanced Video Codec
 Format profile : High@L4.1
 Format settings : CABAC / 4 Ref Frames
 Format settings, CABAC : Yes
 Format settings, ReFrames : 4 frames
 Codec ID : V_MPEG4/ISO/AVC
 Duration : 1 h 49 min
 Bit rate : 11.5 Mb/s
 Width : 1 920 pixels
 Height : 804 pixels
 Display aspect ratio : 2.40:1
 Frame rate mode : Constant
 Frame rate : 23.976 (24000/1001) FPS
 Color space : YUV
 Chroma subsampling : 4:2:0
 Bit depth : 8 bits
 Scan type : Progressive
 Bits/(Pixel*Frame) : 0.311
 Stream size : 8.75 GiB (86%)
 Title : Ladies.in.Black.2018.1080p.BluRay.x264.DTS-HD.MA.5.1-FGT
 Writing library : x264 core 148 r2795M aaa9aa8
 Encoding settings : cabac=1 / ref=4 / deblock=1:-2:-2 / analyse=0x3:0x113 / me=umh / subme=9 / psy=1 / psy_rd=1.00:0.15 / mixed_ref=1 / me_range=16 / chroma_me=1 / trellis=2 / 8x8dct=1 / cqm=0 / deadzone=21,11 / fast_pskip=1 / chroma_qp_offset=-3 / threads=24 / lookahead_threads=3 / sliced_threads=0 / nr=0 / decimate=1 / interlaced=0 / bluray_compat=0 / constrained_intra=0 / bframes=3 / b_pyramid=2 / b_adapt=1 / b_bias=0 / direct=3 / weightb=1 / open_gop=0 / weightp=2 / keyint=250 / keyint_min=25 / scenecut=40 / intra_refresh=0 / rc_lookahead=50 / rc=2pass / mbtree=1 / bitrate=11500 / ratetol=1.0 / qcomp=0.60 / qpmin=0 / qpmax=69 / qpstep=4 / cplxblur=20.0 / qblur=0.5 / vbv_maxrate=31250 / vbv_bufsize=31250 / nal_hrd=none / filler=0 / ip_ratio=1.40 / aq=1:1.00
 Language : English
 Default : Yes
 Forced : No

 Audio
 ID : 2
 Format : DTS XLL
 Format/Info : Digital Theater Systems
 Commercial name : DTS-HD Master Audio
 Codec ID : A_DTS
 Duration : 1 h 49 min
 Bit rate mode : Variable
 Bit rate : 1 865 kb/s
 Channel(s) : 6 channels
 Channel layout : C L R Ls Rs LFE
 Sampling rate : 48.0 kHz
 Frame rate : 93.750 FPS (512 SPF)
 Bit depth : 16 bits
 Compression mode : Lossless
 Stream size : 1.42 GiB (14%)
 Title : Ladies.in.Black.2018.1080p.BluRay.x264.DTS-HD.MA.5.1-FGT
 Language : English
 Default : Yes
 Forced : No

 Text #1
 ID : 3
 Format : UTF-8
 Codec ID : S_TEXT/UTF8
 Codec ID/Info : UTF-8 Plain Text
 Duration : 1 h 43 min
 Bit rate : 68 b/s
 Count of elements : 1505
 Stream size : 51.7 KiB (0%)
 Title : English-SRT
 Default : Yes
 Forced : No

 Text #2
 ID : 4
 Format : PGS
 Muxing mode : zlib
 Codec ID : S_HDMV/PGS
 Codec ID/Info : Picture based subtitle format used on BDs/HD-DVDs
 Duration : 1 h 43 min
 Bit rate : 26.1 kb/s
 Count of elements : 3214
 Stream size : 19.4 MiB (0%)
 Title : English-PGS
 Language : English
 Default : No
 Forced : No

 Menu
 00:00:00.000 : en:Chapter 1
 00:06:04.990 : en:Chapter 2
 00:11:14.549 : en:Chapter 3
 00:17:48.109 : en:Chapter 4
 00:25:14.430 : en:Chapter 5
 00:31:10.994 : en:Chapter 6
 00:38:33.686 : en:Chapter 7
 00:45:44.116 : en:Chapter 8
 00:51:56.238 : en:Chapter 9
 00:59:45.957 : en:Chapter 10
 01:04:09.763 : en:Chapter 11
 01:07:56.739 : en:Chapter 12
 01:13:45.129 : en:Chapter 13
 01:18:11.228 : en:Chapter 14
 01:25:05.726 : en:Chapter 15
 01:29:27.362 : en:Chapter 16
 01:35:10.163 : en:Chapter 17
 01:41:15.444 : en:Chapter 18
Imagem Imagem
Imagem Imagem


phpBB [video]



LINKS:

ed2k: Ladies.in.Black.2018.1080p.BluRay.x264.DTS-HD.MA.5.1-FGT.[TheRostrum.net].mkv  [10.18 Gb]
ed2k: Ladies.in.Black.2018.1080p.BluRay.x264.DTS-HD.MA.5.1-FGT.[TheRostrum.net].nfo  [3.1 Kb]
ed2k: Ladies.in.Black.2018.1080p.BluRay.x264.DTS-HD.MA.5.1-FGT.[TheRostrum.net].srt  [114.4 Kb]
Não tem Permissão para ver os ficheiros anexados nesta mensagem.
Imagem

Avatar do Utilizador
coutinho
Utilizador
Utilizador
Mensagens: 1495
Registado: 26 out 2011, 11:06

Re: Ladies in Black (2018) *1080p BluRay* - FGT

Mensagem por coutinho » 22 jan 2019, 14:42

Vai sair. Obrigado

Responder

Voltar para “Alta Definição // High Definition (Com Legendas/With Subtitles)”