The Greatest Showman (2017) *1080p BluRay* - FGT

1080p (a1080p, 1080p)
Qualquer Alta Resolução // Any High Definition release, be it full (BD, HDDVD, HDTV stream, BDRip, HDDVDRip, HDTVRip)

Moderador: Moderador

Avatar do Utilizador
Lost_Rider34
Administrador
Administrador
Mensagens: 10533
Registado: quarta out 15, 2008 2:07 pm
Localização: Aqui
Contacto:

The Greatest Showman (2017) *1080p BluRay* - FGT

Mensagempor Lost_Rider34 » domingo abr 15, 2018 9:02 pm

Imagem


P. T. Barnum, um showman que tem uma tendência natural de enganar seu público, decide montar um circo na esperança de ficar famoso. Durante sua saga há ainda uma importante questão pendente em sua vida, uma paixão cega pela cantora Jenny Lind.

Inspired by the imagination of P.T. Barnum, The Greatest Showman is an original musical that celebrates the birth of show business & tells of a visionary who rose from nothing to create a spectacle that became a worldwide sensation.


imdb.com
The Greatest Showman (2017)

Capa
Sinopse:Celebrates the birth of show business, and tells of a visionary who rose from nothing to create a spectacle that became a worldwide sensation.
Pontuação:7.9
Duração:105 minutos
Idioma:English
Realizador:Michael Gracey
Actores:Hugh Jackman, Michelle Williams, Zac Efron, Zendaya, Rebecca Ferguson
  
Fonte:http://www.imdb.com/title/tt1485796
Última Actualização:Segunda Março 12, 2018 08:24


Código: Selecionar todos

Video
 ID                                       : 1
 Format                                   : AVC
 Format/Info                              : Advanced Video Codec
 Format profile                           : High@L4.1
 Format settings                          : CABAC / 2 Ref Frames
 Format settings, CABAC                   : Yes
 Format settings, ReFrames                : 2 frames
 Codec ID                                 : V_MPEG4/ISO/AVC
 Duration                                 : 1 h 44 min
 Bit rate mode                            : Variable
 Bit rate                                 : 23.6 Mb/s
 Width                                    : 1 920 pixels
 Height                                   : 1 080 pixels
 Display aspect ratio                     : 16:9
 Frame rate mode                          : Constant
 Frame rate                               : 23.976 (24000/1001) FPS
 Color space                              : YUV
 Chroma subsampling                       : 4:2:0
 Bit depth                                : 8 bits
 Scan type                                : Progressive
 Bits/(Pixel*Frame)                       : 0.475
 Stream size                              : 17.3 GiB (73%)
 Title                                    : The.Greatest.Showman.2017.1080p.BluRay.REMUX.AVC.DTS-HD.MA.7.1-FGT
 Language                                 : English
 Default                                  : No
 Forced                                   : No

 Audio #1
 ID                                       : 2
 Format                                   : DTS
 Format/Info                              : Digital Theater Systems
 Format profile                           : MA / ES Matrix / Core
 Codec ID                                 : A_DTS
 Duration                                 : 1 h 44 min
 Bit rate mode                            : Variable / Constant / Constant
 Bit rate                                 : 5 243 kb/s / 1 509 kb/s / 1 509 kb/s
 Channel(s)                               : 8 channels / 7 channels / 6 channels
 Channel positions                        : Front: L C R, Side: L R, Back: L R, LFE / Front: L C R, Side: L R, Back: C, LFE / Front: L C R, Side: L R, LFE
 Sampling rate                            : 48.0 kHz
 Frame rate                               : 93.750 FPS (512 SPF)
 Bit depth                                : 24 bits
 Compression mode                         : Lossless / Lossy / Lossy
 Stream size                              : 3.84 GiB (16%)
 Title                                    : The.Greatest.Showman.2017.1080p.BluRay.REMUX.AVC.DTS-HD.MA.7.1-FGT
 Language                                 : English
 Default                                  : Yes
 Forced                                   : No

 Audio #2
 ID                                       : 3
 Format                                   : DTS
 Format/Info                              : Digital Theater Systems
 Format profile                           : ES Matrix / Core
 Codec ID                                 : A_DTS
 Duration                                 : 1 h 44 min
 Bit rate mode                            : Constant
 Bit rate                                 : 1 509 kb/s
 Channel(s)                               : 7 channels / 6 channels
 Channel positions                        : Front: L C R, Side: L R, Back: C, LFE / Front: L C R, Side: L R, LFE
 Sampling rate                            : 48.0 kHz
 Frame rate                               : 93.750 FPS (512 SPF)
 Bit depth                                : 24 bits
 Compression mode                         : Lossy
 Stream size                              : 1.10 GiB (5%)
 Title                                    : The.Greatest.Showman.2017.1080p.BluRay.REMUX.AVC.DTS-HD.MA.7.1-FGT
 Language                                 : English
 Default                                  : No
 Forced                                   : No

 Audio #3
 ID                                       : 4
 Format                                   : AC-3
 Format/Info                              : Audio Coding 3
 Codec ID                                 : A_AC3
 Duration                                 : 1 h 44 min
 Bit rate mode                            : Constant
 Bit rate                                 : 448 kb/s
 Channel(s)                               : 6 channels
 Channel positions                        : Front: L C R, Side: L R, LFE
 Sampling rate                            : 48.0 kHz
 Frame rate                               : 31.250 FPS (1536 SPF)
 Bit depth                                : 16 bits
 Compression mode                         : Lossy
 Stream size                              : 336 MiB (1%)
 Title                                    : The.Greatest.Showman.2017.1080p.BluRay.REMUX.AVC.DTS-HD.MA.7.1-FGT
 Language                                 : English
 Service kind                             : Complete Main
 Default                                  : No
 Forced                                   : No

 Audio #4
 ID                                       : 5
 Format                                   : AC-3
 Format/Info                              : Audio Coding 3
 Codec ID                                 : A_AC3
 Duration                                 : 1 h 44 min
 Bit rate mode                            : Constant
 Bit rate                                 : 448 kb/s
 Channel(s)                               : 6 channels
 Channel positions                        : Front: L C R, Side: L R, LFE
 Sampling rate                            : 48.0 kHz
 Frame rate                               : 31.250 FPS (1536 SPF)
 Bit depth                                : 16 bits
 Compression mode                         : Lossy
 Stream size                              : 336 MiB (1%)
 Title                                    : The.Greatest.Showman.2017.1080p.BluRay.REMUX.AVC.DTS-HD.MA.7.1-FGT
 Language                                 : Spanish
 Service kind                             : Complete Main
 Default                                  : No
 Forced                                   : No

 Audio #5
 ID                                       : 6
 Format                                   : AC-3
 Format/Info                              : Audio Coding 3
 Codec ID                                 : A_AC3
 Duration                                 : 1 h 44 min
 Bit rate mode                            : Constant
 Bit rate                                 : 448 kb/s
 Channel(s)                               : 6 channels
 Channel positions                        : Front: L C R, Side: L R, LFE
 Sampling rate                            : 48.0 kHz
 Frame rate                               : 31.250 FPS (1536 SPF)
 Bit depth                                : 16 bits
 Compression mode                         : Lossy
 Stream size                              : 336 MiB (1%)
 Title                                    : The.Greatest.Showman.2017.1080p.BluRay.REMUX.AVC.DTS-HD.MA.7.1-FGT
 Language                                 : French
 Service kind                             : Complete Main
 Default                                  : No
 Forced                                   : No

 Audio #6
 ID                                       : 7
 Format                                   : AC-3
 Format/Info                              : Audio Coding 3
 Codec ID                                 : A_AC3
 Duration                                 : 1 h 44 min
 Bit rate mode                            : Constant
 Bit rate                                 : 224 kb/s
 Channel(s)                               : 2 channels
 Channel positions                        : Front: L R
 Sampling rate                            : 48.0 kHz
 Frame rate                               : 31.250 FPS (1536 SPF)
 Bit depth                                : 16 bits
 Compression mode                         : Lossy
 Stream size                              : 168 MiB (1%)
 Title                                    : The.Greatest.Showman.2017.1080p.BluRay.REMUX.AVC.DTS-HD.MA.7.1-FGT
 Language                                 : English
 Service kind                             : Complete Main
 Default                                  : No
 Forced                                   : No

 Text #1
 ID                                       : 8
 Format                                   : PGS
 Muxing mode                              : zlib
 Codec ID                                 : S_HDMV/PGS
 Codec ID/Info                            : Picture based subtitle format used on BDs/HD-DVDs
 Duration                                 : 1 h 43 min
 Bit rate                                 : 51.5 kb/s
 Count of elements                        : 3728
 Stream size                              : 38.1 MiB (0%)
 Title                                    : English-PGS
 Language                                 : English
 Default                                  : Yes
 Forced                                   : No

 Text #2
 ID                                       : 9
 Format                                   : PGS
 Muxing mode                              : zlib
 Codec ID                                 : S_HDMV/PGS
 Codec ID/Info                            : Picture based subtitle format used on BDs/HD-DVDs
 Duration                                 : 1 h 43 min
 Bit rate                                 : 38.9 kb/s
 Count of elements                        : 2932
 Stream size                              : 28.9 MiB (0%)
 Title                                    : Spanish-PGS
 Language                                 : Spanish
 Default                                  : No
 Forced                                   : No

 Text #3
 ID                                       : 10
 Format                                   : PGS
 Muxing mode                              : zlib
 Codec ID                                 : S_HDMV/PGS
 Codec ID/Info                            : Picture based subtitle format used on BDs/HD-DVDs
 Duration                                 : 1 h 43 min
 Bit rate                                 : 16.3 kb/s
 Count of elements                        : 1130
 Stream size                              : 12.1 MiB (0%)
 Title                                    : Spanish-FORCED-PGS
 Language                                 : Spanish
 Default                                  : No
 Forced                                   : No

 Text #4
 ID                                       : 11
 Format                                   : PGS
 Muxing mode                              : zlib
 Codec ID                                 : S_HDMV/PGS
 Codec ID/Info                            : Picture based subtitle format used on BDs/HD-DVDs
 Duration                                 : 1 h 44 min
 Bit rate                                 : 41.9 kb/s
 Count of elements                        : 3367
 Stream size                              : 31.3 MiB (0%)
 Title                                    : French-PGS
 Language                                 : French
 Default                                  : No
 Forced                                   : No

 Text #5
 ID                                       : 12
 Format                                   : PGS
 Muxing mode                              : zlib
 Codec ID                                 : S_HDMV/PGS
 Codec ID/Info                            : Picture based subtitle format used on BDs/HD-DVDs
 Duration                                 : 1 h 44 min
 Bit rate                                 : 18.6 kb/s
 Count of elements                        : 1354
 Stream size                              : 13.9 MiB (0%)
 Title                                    : French-FORCED-PGS
 Language                                 : French
 Default                                  : No
 Forced                                   : No

 Text #6
 ID                                       : 13
 Format                                   : PGS
 Muxing mode                              : zlib
 Codec ID                                 : S_HDMV/PGS
 Codec ID/Info                            : Picture based subtitle format used on BDs/HD-DVDs
 Duration                                 : 1 h 36 min
 Bit rate                                 : 54.2 kb/s
 Count of elements                        : 2359
 Stream size                              : 37.5 MiB (0%)
 Title                                    : English-pGS
 Language                                 : English
 Default                                  : No
 Forced                                   : No

 Text #7
 ID                                       : 14
 Format                                   : PGS
 Muxing mode                              : zlib
 Codec ID                                 : S_HDMV/PGS
 Codec ID/Info                            : Picture based subtitle format used on BDs/HD-DVDs
 Duration                                 : 1 h 44 min
 Bit rate                                 : 50.4 kb/s
 Count of elements                        : 2488
 Stream size                              : 37.7 MiB (0%)
 Title                                    : Spanish-PGS
 Language                                 : Spanish
 Default                                  : No
 Forced                                   : No

 Text #8
 ID                                       : 15
 Format                                   : PGS
 Muxing mode                              : zlib
 Codec ID                                 : S_HDMV/PGS
 Codec ID/Info                            : Picture based subtitle format used on BDs/HD-DVDs
 Duration                                 : 1 h 44 min
 Bit rate                                 : 46.4 kb/s
 Count of elements                        : 2381
 Stream size                              : 34.7 MiB (0%)
 Title                                    : French-PGS
 Language                                 : French
 Default                                  : No
 Forced                                   : No

 Text #9
 ID                                       : 16
 Format                                   : PGS
 Muxing mode                              : zlib
 Codec ID                                 : S_HDMV/PGS
 Codec ID/Info                            : Picture based subtitle format used on BDs/HD-DVDs
 Duration                                 : 1 h 43 min
 Bit rate                                 : 167 kb/s
 Count of elements                        : 5255
 Stream size                              : 124 MiB (1%)
 Title                                    : English-COMMENTARY-PGS
 Language                                 : English
 Default                                  : No
 Forced                                   : No

 Menu
 00:00:00.000                             : en:Chapter 01
 00:03:21.618                             : en:Chapter 02
 00:11:33.901                             : en:Chapter 03
 00:16:21.313                             : en:Chapter 04
 00:21:13.397                             : en:Chapter 05
 00:25:04.085                             : en:Chapter 06
 00:32:10.053                             : en:Chapter 07
 00:36:09.417                             : en:Chapter 08
 00:41:38.412                             : en:Chapter 09
 00:44:41.053                             : en:Chapter 10
 00:48:23.901                             : en:Chapter 11
 00:53:11.062                             : en:Chapter 12
 00:56:20.668                             : en:Chapter 13
 01:01:34.524                             : en:Chapter 14
 01:07:33.883                             : en:Chapter 15
 01:12:00.983                             : en:Chapter 16
 01:18:23.448                             : en:Chapter 17
 01:22:07.130                             : en:Chapter 18
 01:29:04.797                             : en:Chapter 19
 01:37:09.573                             : en:Chapter 20



Imagem
Imagem Imagem


phpBB [video]



LINKS:

ed2k: The.Greatest.Showman.2017.1080p.BluRay.x264.DTS-HD.MA.7.1-FGT.mkv  [10.41 Gb]
ed2k: The.Greatest.Showman.2017.1080p.BluRay.x264.DTS-HD.MA.7.1-FGT.nfo  [15.9 Kb]
ed2k: The.Greatest.Showman.2017.1080p.BluRay.x264.DTS-HD.MA.7.1-FGT.srt  [100.7 Kb]
Não tem Permissão para ver os ficheiros anexados nesta mensagem.
Imagem

Avatar do Utilizador
coutinho
Utilizador
Utilizador
Mensagens: 1399
Registado: quarta out 26, 2011 11:06 am

Re: The Greatest Showman (2017) *1080p BluRay* - FGT

Mensagempor coutinho » domingo abr 15, 2018 9:44 pm

Vai sair. Obrigado


Voltar para “Alta Definição // High Definition (Com Legendas/With Subtitles)”

Quem está ligado:

Utilizadores neste fórum: Nenhum utilizador registado e 2 visitantes