Star Wars: The Last Jedi (2017) *1080p BluRay* - FGT

1080p (a1080p, 1080p)
Qualquer Alta Resolução // Any High Definition release, be it full (BD, HDDVD, HDTV stream, BDRip, HDDVDRip, HDTVRip)

Moderador: Moderador

Responder
Avatar do Utilizador
Lost_Rider34
Administrador
Administrador
Mensagens: 10614
Registado: 15 out 2008, 14:07
Localização: Aqui
Contacto:

Star Wars: The Last Jedi (2017) *1080p BluRay* - FGT

Mensagem por Lost_Rider34 » 12 mar 2018, 16:50

Imagem


Tendo dado seus primeiros passos no universo Jedi, Rey se junta à Luke Skywalker numa aventura com Leia, Finn e Poe que revela os mistérios da Força e os segredos do passado.

In Lucasfilm's Star Wars: The Last Jedi, the Skywalker saga continues as the heroes of The Force Awakens join the galactic legends in an epic adventure that unlocks age-old mysteries of the Force and shocking revelations of the past.


imdb.com
Star Wars: The Last Jedi (2017)

Capa
Sinopse:Rey develops her newly discovered abilities with the guidance of Luke Skywalker, who is unsettled by the strength of her powers. Meanwhile, the Resistance prepares for battle with the First Order.
Pontuação:7.4
Duração:152 minutos
Idioma:English
Realizador:Rian Johnson
Actores:Mark Hamill, Carrie Fisher, Adam Driver, Daisy Ridley, John Boyega
  
Fonte:http://www.imdb.com/title/tt2527336
Última Actualização:Segunda Março 12, 2018 10:48


Código: Selecionar todos

Video
 ID                                       : 1
 Format                                   : AVC
 Format/Info                              : Advanced Video Codec
 Format profile                           : High@L4.1
 Format settings                          : CABAC / 5 Ref Frames
 Format settings, CABAC                   : Yes
 Format settings, ReFrames                : 5 frames
 Codec ID                                 : V_MPEG4/ISO/AVC
 Duration                                 : 2 h 31 min
 Bit rate                                 : 8 797 kb/s
 Width                                    : 1 920 pixels
 Height                                   : 808 pixels
 Display aspect ratio                     : 2.40:1
 Frame rate mode                          : Constant
 Frame rate                               : 23.976 FPS
 Color space                              : YUV
 Chroma subsampling                       : 4:2:0
 Bit depth                                : 8 bits
 Scan type                                : Progressive
 Bits/(Pixel*Frame)                       : 0.237
 Stream size                              : 9.33 GiB (65%)
 Title                                    : Star.Wars.The.Last.Jedi.2017.1080p.BluRay.x264.DTS-HD.MA.7.1-FGT
 Writing library                          : x264 core 155 r2901 7d0ff22
 Encoding settings                        : cabac=1 / ref=5 / deblock=1:0:0 / analyse=0x3:0x133 / me=umh / subme=7 / psy=1 / psy_rd=1.00:0.00 / mixed_ref=1 / me_range=16 / chroma_me=1 / trellis=1 / 8x8dct=1 / cqm=0 / deadzone=21,11 / fast_pskip=0 / chroma_qp_offset=-2 / threads=25 / lookahead_threads=4 / sliced_threads=0 / nr=0 / decimate=1 / interlaced=0 / bluray_compat=0 / constrained_intra=0 / bframes=3 / b_pyramid=2 / b_adapt=1 / b_bias=0 / direct=1 / weightb=1 / open_gop=0 / weightp=2 / keyint=250 / keyint_min=23 / scenecut=40 / intra_refresh=0 / rc_lookahead=40 / rc=2pass / mbtree=1 / bitrate=8797 / ratetol=1.0 / qcomp=0.60 / qpmin=0 / qpmax=69 / qpstep=4 / cplxblur=20.0 / qblur=0.5 / ip_ratio=1.40 / aq=1:1.00
 Language                                 : English
 Default                                  : Yes
 Forced                                   : No

 Audio
 ID                                       : 2
 Format                                   : DTS
 Format/Info                              : Digital Theater Systems
 Format profile                           : MA / Core
 Codec ID                                 : A_DTS
 Duration                                 : 2 h 31 min
 Bit rate mode                            : Variable / Constant
 Bit rate                                 : 4 629 kb/s / 1 509 kb/s
 Channel(s)                               : 8 channels / 6 channels
 Channel positions                        : Front: L C R, Side: L R, Back: L R, LFE / Front: L C R, Side: L R, LFE
 Sampling rate                            : 48.0 kHz
 Frame rate                               : 93.750 FPS (512 SPF)
 Bit depth                                : 24 bits
 Compression mode                         : Lossless / Lossy
 Stream size                              : 4.91 GiB (34%)
 Title                                    : Star.Wars.The.Last.Jedi.2017.1080p.BluRay.x264.DTS-HD.MA.7.1-FGT
 Language                                 : English
 Default                                  : Yes
 Forced                                   : No

 Text #1
 ID                                       : 3
 Format                                   : UTF-8
 Codec ID                                 : S_TEXT/UTF8
 Codec ID/Info                            : UTF-8 Plain Text
 Duration                                 : 2 h 20 min
 Bit rate                                 : 40 b/s
 Count of elements                        : 1569
 Stream size                              : 41.6 KiB (0%)
 Title                                    : English-SRT
 Language                                 : English
 Default                                  : Yes
 Forced                                   : No

 Text #2
 ID                                       : 4
 Format                                   : UTF-8
 Codec ID                                 : S_TEXT/UTF8
 Codec ID/Info                            : UTF-8 Plain Text
 Duration                                 : 2 h 23 min
 Bit rate                                 : 46 b/s
 Count of elements                        : 1898
 Stream size                              : 49.1 KiB (0%)
 Title                                    : English-SDH-SRT
 Language                                 : English
 Default                                  : No
 Forced                                   : No

 Text #3
 ID                                       : 5
 Format                                   : PGS
 Muxing mode                              : zlib
 Codec ID                                 : S_HDMV/PGS
 Codec ID/Info                            : Picture based subtitle format used on BDs/HD-DVDs
 Duration                                 : 2 h 23 min
 Bit rate                                 : 31.0 kb/s
 Count of elements                        : 3796
 Stream size                              : 31.8 MiB (0%)
 Title                                    : English-PGS
 Language                                 : English
 Default                                  : No
 Forced                                   : No

 Text #4
 ID                                       : 6
 Format                                   : PGS
 Muxing mode                              : zlib
 Codec ID                                 : S_HDMV/PGS
 Codec ID/Info                            : Picture based subtitle format used on BDs/HD-DVDs
 Duration                                 : 2 h 25 min
 Bit rate                                 : 25.8 kb/s
 Count of elements                        : 3416
 Stream size                              : 26.8 MiB (0%)
 Title                                    : French-PGS
 Language                                 : French
 Default                                  : No
 Forced                                   : No

 Text #5
 ID                                       : 7
 Format                                   : PGS
 Muxing mode                              : zlib
 Codec ID                                 : S_HDMV/PGS
 Codec ID/Info                            : Picture based subtitle format used on BDs/HD-DVDs
 Duration                                 : 2 h 22 min
 Bit rate                                 : 25.7 kb/s
 Count of elements                        : 3182
 Stream size                              : 26.2 MiB (0%)
 Title                                    : Spanish-PGS
 Language                                 : Spanish
 Default                                  : No
 Forced                                   : No

 Menu
 00:00:00.000                             : en:00:00:00.000
 00:00:18.644                             : en:00:00:18.644
 00:01:45.731                             : en:00:01:45.731
 00:03:11.817                             : en:00:03:11.817
 00:07:43.296                             : en:00:07:43.296
 00:12:48.434                             : en:00:12:48.434
 00:13:44.574                             : en:00:13:44.574
 00:16:29.280                             : en:00:16:29.280
 00:19:59.281                             : en:00:19:59.281
 00:22:51.370                             : en:00:22:51.370
 00:26:04.980                             : en:00:26:04.980
 00:27:22.850                             : en:00:27:22.850
 00:31:24.758                             : en:00:31:24.758
 00:32:54.681                             : en:00:32:54.681
 00:35:27.667                             : en:00:35:27.667
 00:38:11.498                             : en:00:38:11.498
 00:41:53.428                             : en:00:41:53.428
 00:44:29.542                             : en:00:44:29.542
 00:46:51.475                             : en:00:46:51.475
 00:51:41.932                             : en:00:51:41.932
 00:53:50.060                             : en:00:53:50.060
 00:55:41.505                             : en:00:55:41.505
 00:57:39.581                             : en:00:57:39.581
 00:59:16.636                             : en:00:59:16.636
 01:02:05.847                             : en:01:02:05.847
 01:03:07.701                             : en:01:03:07.701
 01:05:41.729                             : en:01:05:41.729
 01:07:03.478                             : en:01:07:03.478
 01:10:25.721                             : en:01:10:25.721
 01:13:30.323                             : en:01:13:30.323
 01:17:43.450                             : en:01:17:43.450
 01:20:53.057                             : en:01:20:53.057
 01:24:17.970                             : en:01:24:17.970
 01:26:23.220                             : en:01:26:23.220
 01:27:59.524                             : en:01:27:59.524
 01:30:49.361                             : en:01:30:49.361
 01:32:54.569                             : en:01:32:54.569
 01:35:53.706                             : en:01:35:53.706
 01:37:10.616                             : en:01:37:10.616
 01:39:12.864                             : en:01:39:12.864
 01:42:07.663                             : en:01:42:07.663
 01:45:03.714                             : en:01:45:03.714
 01:49:35.694                             : en:01:49:35.694
 01:52:20.609                             : en:01:52:20.609
 01:56:04.749                             : en:01:56:04.749
 01:58:52.083                             : en:01:58:52.083
 02:03:11.134                             : en:02:03:11.134
 02:06:39.759                             : en:02:06:39.759
 02:11:43.604                             : en:02:11:43.604
 02:15:12.104                             : en:02:15:12.104
 02:20:16.700                             : en:02:20:16.700
 02:23:39.694                             : en:02:23:39.694



Imagem
Imagem Imagem


phpBB [video]



LINKS:

ed2k: Star.Wars.The.Last.Jedi.2017.1080p.BluRay.x264.DTS-HD.MA.7.1-FGT.[TheRostrum.net].mkv  [14.27 Gb]
ed2k: Star.Wars.The.Last.Jedi.2017.1080p.BluRay.x264.DTS-HD.MA.7.1-FGT.[TheRostrum.net].nfo  [9.9 Kb]
ed2k: Star.Wars.The.Last.Jedi.2017.1080p.BluRay.x264.DTS-HD.MA.7.1-FGT.[TheRostrum.net].srt  [106.3 Kb]
Não tem Permissão para ver os ficheiros anexados nesta mensagem.
Imagem

Avatar do Utilizador
coutinho
Utilizador
Utilizador
Mensagens: 1439
Registado: 26 out 2011, 11:06

Re: Star Wars: The Last Jedi (2017) *1080p BluRay* - FGT

Mensagem por coutinho » 12 mar 2018, 18:18

Vai sair. Obrigado

Responder

Voltar para “Alta Definição // High Definition (Com Legendas/With Subtitles)”