Murder on the Orient Express (2017) *1080p BluRay* - FGT

1080p (a1080p, 1080p)
Qualquer Alta Resolução // Any High Definition release, be it full (BD, HDDVD, HDTV stream, BDRip, HDDVDRip, HDTVRip)

Moderador: Moderador

Responder
Avatar do Utilizador
Lost_Rider34
Administrador
Administrador
Mensagens: 10592
Registado: 15 out 2008, 14:07
Localização: Aqui
Contacto:

Murder on the Orient Express (2017) *1080p BluRay* - FGT

Mensagem por Lost_Rider34 » 12 fev 2018, 14:21

Imagem


O que começa como um luxuoso passeio de trem pela Europa rapidamente se desdobra em um dos mistérios mais elegantes, tensos e emocionantes já contados. Do romance da autora mais vendida do mundo, Agatha Christie, “Assassinato no Expresso do Oriente” conta a história de treze estranhos presos em um trem, onde todos são suspeitos. Um homem deve correr contra o tempo para resolver o quebra-cabeça antes que o assassino ataque novamente.

What starts out as a lavish train ride through Europe quickly unfolds into one of the most stylish, suspenseful and thrilling mysteries ever told. From the novel by best-selling author Agatha Christie, "Murder on the Orient Express" tells the tale of thirteen strangers stranded on a train, where everyone's a suspect. One man must race against time to solve the puzzle before the murderer strikes again. Kenneth Branagh directs and leads an all-star cast including Penélope Cruz, Willem Dafoe, Judi Dench, Johnny Depp, Michelle Pfeiffer, Daisy Ridley and Josh Gad.


imdb.com
Murder on the Orient Express (2017)

Capa
Sinopse:When a murder occurs on the train he's travelling on, celebrated detective Hercule Poirot is recruited to solve the case.
Pontuação:6.6
Duração:114 minutos
Idioma:English, French, German, Arabic
Realizador:Kenneth Branagh
Actores:Paapa Essiedu, Yassine Zeroual, Asan N'Jie, Michael Rouse, Kenneth Branagh
  
Fonte:http://www.imdb.com/title/tt3402236
Última Actualização:Segunda Março 12, 2018 08:28


Código: Selecionar todos

Video
 ID                                       : 1
 Format                                   : AVC
 Format/Info                              : Advanced Video Codec
 Format profile                           : High@L4.1
 Format settings                          : CABAC / 5 Ref Frames
 Format settings, CABAC                   : Yes
 Format settings, ReFrames                : 5 frames
 Codec ID                                 : V_MPEG4/ISO/AVC
 Duration                                 : 1 h 53 min
 Bit rate                                 : 9 480 kb/s
 Width                                    : 1 920 pixels
 Height                                   : 800 pixels
 Display aspect ratio                     : 2.40:1
 Frame rate mode                          : Constant
 Frame rate                               : 23.976 FPS
 Color space                              : YUV
 Chroma subsampling                       : 4:2:0
 Bit depth                                : 8 bits
 Scan type                                : Progressive
 Bits/(Pixel*Frame)                       : 0.257
 Stream size                              : 7.54 GiB (70%)
 Title                                    : Murder.On.The.Orient.Express.2017.1080p.BluRay.x264.DTS-HD.MA.7.1-FGT
 Writing library                          : x264 core 155 r2901 7d0ff22
 Encoding settings                        : cabac=1 / ref=5 / deblock=1:0:0 / analyse=0x3:0x133 / me=umh / subme=7 / psy=1 / psy_rd=1.00:0.00 / mixed_ref=1 / me_range=16 / chroma_me=1 / trellis=1 / 8x8dct=1 / cqm=0 / deadzone=21,11 / fast_pskip=0 / chroma_qp_offset=-2 / threads=25 / lookahead_threads=4 / sliced_threads=0 / nr=0 / decimate=1 / interlaced=0 / bluray_compat=0 / constrained_intra=0 / bframes=3 / b_pyramid=2 / b_adapt=1 / b_bias=0 / direct=1 / weightb=1 / open_gop=0 / weightp=2 / keyint=250 / keyint_min=23 / scenecut=40 / intra_refresh=0 / rc_lookahead=40 / rc=2pass / mbtree=1 / bitrate=9480 / ratetol=1.0 / qcomp=0.60 / qpmin=0 / qpmax=69 / qpstep=4 / cplxblur=20.0 / qblur=0.5 / ip_ratio=1.40 / aq=1:1.00
 Language                                 : English
 Default                                  : Yes
 Forced                                   : No

 Audio
 ID                                       : 2
 Format                                   : DTS
 Format/Info                              : Digital Theater Systems
 Format profile                           : MA / ES Matrix / Core
 Codec ID                                 : A_DTS
 Duration                                 : 1 h 53 min
 Bit rate mode                            : Variable / Constant / Constant
 Bit rate                                 : 4 061 kb/s / 1 509 kb/s / 1 509 kb/s
 Channel(s)                               : 8 channels / 7 channels / 6 channels
 Channel positions                        : Front: L C R, Side: L R, Back: L R, LFE / Front: L C R, Side: L R, Back: C, LFE / Front: L C R, Side: L R, LFE
 Sampling rate                            : 48.0 kHz
 Frame rate                               : 93.750 FPS (512 SPF)
 Bit depth                                : 24 bits
 Compression mode                         : Lossless / Lossy / Lossy
 Stream size                              : 3.23 GiB (30%)
 Title                                    : Murder.On.The.Orient.Express.2017.1080p.BluRay.x264.DTS-HD.MA.7.1-FGT
 Language                                 : English
 Default                                  : Yes
 Forced                                   : No

 Text #1
 ID                                       : 3
 Format                                   : UTF-8
 Codec ID                                 : S_TEXT/UTF8
 Codec ID/Info                            : UTF-8 Plain Text
 Duration                                 : 1 h 33 min
 Bit rate                                 : 0 b/s
 Count of elements                        : 25
 Stream size                              : 549 Bytes (0%)
 Title                                    : English-FORCED-SRT
 Language                                 : English
 Default                                  : Yes
 Forced                                   : Yes

 Text #2
 ID                                       : 4
 Format                                   : UTF-8
 Codec ID                                 : S_TEXT/UTF8
 Codec ID/Info                            : UTF-8 Plain Text
 Duration                                 : 1 h 44 min
 Bit rate                                 : 71 b/s
 Count of elements                        : 1844
 Stream size                              : 54.9 KiB (0%)
 Title                                    : English-SRT
 Language                                 : English
 Default                                  : No
 Forced                                   : No

 Menu
 00:00:00.000                             : en:00:00:00.000
 00:03:06.144                             : en:00:03:06.144
 00:06:42.193                             : en:00:06:42.193
 00:11:44.746                             : en:00:11:44.746
 00:18:26.188                             : en:00:18:26.188
 00:24:53.659                             : en:00:24:53.659
 00:33:14.159                             : en:00:33:14.159
 00:37:47.515                             : en:00:37:47.515
 00:43:16.511                             : en:00:43:16.511
 00:46:24.865                             : en:00:46:24.865
 00:51:23.580                             : en:00:51:23.580
 00:55:52.015                             : en:00:55:52.015
 01:00:03.183                             : en:01:00:03.183
 01:05:39.227                             : en:01:05:39.227
 01:10:40.153                             : en:01:10:40.153
 01:14:17.578                             : en:01:14:17.578
 01:18:05.055                             : en:01:18:05.055
 01:21:12.284                             : en:01:21:12.284
 01:24:39.366                             : en:01:24:39.366
 01:28:37.854                             : en:01:28:37.854
 01:32:28.376                             : en:01:32:28.376
 01:37:04.652                             : en:01:37:04.652
 01:40:30.024                             : en:01:40:30.024
 01:46:49.903                             : en:01:46:49.903



Imagem Imagem
Imagem Imagem


phpBB [video]



LINKS:

ed2k: Murder.On.The.Orient.Express.2017.1080p.BluRay.x264.DTS-HD.MA.7.1-FGT.mkv  [10.78 Gb]
ed2k: Murder.On.The.Orient.Express.2017.1080p.BluRay.x264.DTS-HD.MA.7.1-FGT.nfo  [6.2 Kb]
ed2k: Murder.On.The.Orient.Express.2017.1080p.BluRay.x264.DTS-HD.MA.7.1-FGT.srt  [118.8 Kb]
Não tem Permissão para ver os ficheiros anexados nesta mensagem.
Imagem

Avatar do Utilizador
coutinho
Utilizador
Utilizador
Mensagens: 1423
Registado: 26 out 2011, 11:06

Re: Murder on the Orient Express (2017) *1080p BluRay* - FGT

Mensagem por coutinho » 12 fev 2018, 16:13

Vai sair. Obrigado

Responder

Voltar para “Alta Definição // High Definition (Com Legendas/With Subtitles)”

Quem está ligado:

Utilizadores neste fórum: Nenhum utilizador registado e 1 visitante