The Show (2017) *1080p BluRay* - MT

1080p (a1080p, 1080p)
Qualquer Alta Resolução // Any High Definition release, be it full (BD, HDDVD, HDTV stream, BDRip, HDDVDRip, HDTVRip)

Moderador: Moderador

Avatar do Utilizador
Lost_Rider34
Administrador
Administrador
Mensagens: 10478
Registado: quarta out 15, 2008 2:07 pm
Localização: Aqui
Contacto:

The Show (2017) *1080p BluRay* - MT

Mensagempor Lost_Rider34 » sexta dez 15, 2017 12:31 pm

Imagem

O público de hoje tornou-se apaixonado por assistir à degradação de outros na televisão e na internet. Eles desejam um argumento selvagem, uma luta sangrenta ou um escândalo publicitário. Esta se tornou a principal fonte de entretenimento. Mas quando os limites parecem não poderem ser mais ultrapassados, o apresentador de um game show, Adam Rogers, decide quebrar as barreiras ao colocar no ar um novo show, no qual os concorrentes arriscam suas vidas pela chance de ganhar dinheiro. Adam só ficará satisfeito se seu reality show for o número um no ranking da audiência, e ele não vai parar por nada para se certificar de que ele chega lá, mesmo que isso signifique perder sua humanidade.

Today's audience has become infatuated with watching others degrade themselves on national television. They crave a wild argument, a bloody fight, or a publicized scandal. It has become the ultimate source of entertainment. But when the boundaries seem like they can't be pushed any further, game-show host Adam Rogers steps in to break down the wall by hosting a new game show where contestants end their lives for a chance to win money. Adam will only be satisfied if his reality show is number one in the ratings, and he'll stop at nothing to make sure he gets there, even if it means letting go of his humanity.


imdb.com
The Show (2017)

Capa
Sinopse:An unsettling look at reality T.V. where a disturbing hit game show has its contestants ending their lives for the public's enjoyment.
Pontuação:5.6
Duração:104 minutos
Idioma:English
Realizador:Giancarlo Esposito
Actores:Josh Duhamel, Giancarlo Esposito, Famke Janssen, Caitlin FitzGerald, Sarah Wayne Callies
  
Fonte:http://www.imdb.com/title/tt2088950
Última Actualização:Segunda Março 12, 2018 07:38


Código: Selecionar todos

Video
 ID                                       : 1
 Format                                   : AVC
 Format/Info                              : Advanced Video Codec
 Format profile                           : High@L4.1
 Format settings, CABAC                   : Yes
 Format settings, ReFrames                : 4 frames
 Codec ID                                 : V_MPEG4/ISO/AVC
 Duration                                 : 1 h 44 min
 Bit rate                                 : 12.9 Mb/s
 Width                                    : 1 920 pixels
 Height                                   : 1 038 pixels
 Display aspect ratio                     : 1.85:1
 Frame rate mode                          : Constant
 Frame rate                               : 23.976 (24000/1001) FPS
 Color space                              : YUV
 Chroma subsampling                       : 4:2:0
 Bit depth                                : 8 bits
 Scan type                                : Progressive
 Bits/(Pixel*Frame)                       : 0.270
 Stream size                              : 9.45 GiB (83%)
 Default                                  : Yes
 Forced                                   : No

 Audio
 ID                                       : 2
 Format                                   : DTS
 Format/Info                              : Digital Theater Systems
 Format profile                           : MA / Core
 Mode                                     : 16
 Format settings, Endianness              : Big
 Codec ID                                 : A_DTS
 Duration                                 : 1 h 44 min
 Bit rate mode                            : Variable / Constant
 Bit rate                                 : 2 581 kb/s / 1 509 kb/s
 Channel(s)                               : 6 channels
 Channel positions                        : Front: L C R, Side: L R, LFE
 Sampling rate                            : 48.0 kHz
 Frame rate                               : 93.750 FPS (512 spf)
 Bit depth                                : 24 bits
 Compression mode                         : Lossless / Lossy
 Stream size                              : 1.89 GiB (17%)
 Default                                  : Yes
 Forced         


Imagem Imagem
Imagem Imagem

phpBB [video]


LINKS:

ed2k: The.Show.2017.1080p.BluRay.x264.DTS-HD.MA.5.1-MT.mkv  [11.34 Gb]
ed2k: The.Show.2017.1080p.BluRay.x264.DTS-HD.MA.5.1-MT.nfo  [2.2 Kb]
ed2k: The.Show.2017.1080p.BluRay.x264.DTS-HD.MA.5.1-MT.srt  [124.6 Kb]
Não tem Permissão para ver os ficheiros anexados nesta mensagem.
Imagem

Avatar do Utilizador
coutinho
Utilizador
Utilizador
Mensagens: 1380
Registado: quarta out 26, 2011 11:06 am

Re: The Show (2017) *1080p BluRay* - MT

Mensagempor coutinho » sábado dez 16, 2017 11:21 am

Vai sair. Obrigado


Voltar para “Alta Definição // High Definition (Com Legendas/With Subtitles)”

Quem está ligado:

Utilizadores neste fórum: Nenhum utilizador registado e 2 visitantes