Sully (2016) [REMUX] *1080p BluRay* - FGT

1080p (a1080p, 1080p)
Qualquer Alta Resolução // Any High Definition release, be it full (BD, HDDVD, HDTV stream, BDRip, HDDVDRip, HDTVRip)

Moderador: Moderador

Responder
Avatar do Utilizador
Lost_Rider34
Administrador
Administrador
Mensagens: 10592
Registado: 15 out 2008, 14:07
Localização: Aqui
Contacto:

Sully (2016) [REMUX] *1080p BluRay* - FGT

Mensagem por Lost_Rider34 » 06 dez 2017, 17:28

Imagem

Em janeiro de 2009, o Capitão Chesley "" Sullenberger pousou um avião em pane sobre o Rio Hudson, salvando a vida dos 155 passageiros do voo US Airways 1549. Nessa biografia, Clint Eastwood não irá apenas dramatizar "o milagre do Hudson" promovido pelo piloto veterano, como também contar a trajetória que transformou Chesley Burnett Sullenberger III num verdadeiro herói americano.

Tom Hanks stars in this thrilling portrait of heroic airline pilot Chesley "Sully" Sullenberger, re-enacting his incredible successful emergency landing of an Airbus A320 full of passengers on the Hudson River.


imdb.com
Sully (2016)

Capa
Sinopse:The story of Chesley Sullenberger, an American pilot who became a hero after landing his damaged plane on the Hudson River in order to save the flight's passengers and crew.
Pontuação:7.5
Duração:96 minutos
Idioma:English
Realizador:Clint Eastwood
Actores:Tom Hanks, Aaron Eckhart, Valerie Mahaffey, Delphi Harrington, Mike O'Malley
  
Fonte:http://www.imdb.com/title/tt3263904
Última Actualização:Segunda Março 12, 2018 10:38


Código: Selecionar todos

Video
 ID                                       : 1
 Format                                   : AVC
 Format/Info                              : Advanced Video Codec
 Format profile                           : High@L4.1
 Format settings, CABAC                   : Yes
 Format settings, ReFrames                : 4 frames
 Format settings, GOP                     : M=3, N=12
 Codec ID                                 : V_MPEG4/ISO/AVC
 Duration                                 : 1h 35mn
 Bit rate mode                            : Variable
 Maximum bit rate                         : 30.0 Mbps
 Width                                    : 1 920 pixels
 Height                                   : 1 080 pixels
 Display aspect ratio                     : 16:9
 Frame rate mode                          : Constant
 Frame rate                               : 23.976 (24000/1001) fps
 Color space                              : YUV
 Chroma subsampling                       : 4:2:0
 Bit depth                                : 8 bits
 Scan type                                : Progressive
 Title                                    : Sully.2016.1080p.BluRay.REMUX.AVC.DTS-HD.MA.TrueHD.7.1.Atmos-FGT
 Language                                 : English
 Default                                  : No
 Forced                                   : No

 Audio #1
 ID                                       : 2
 Format                                   : DTS
 Format/Info                              : Digital Theater Systems
 Format profile                           : MA / Core
 Mode                                     : 16
 Format settings, Endianness              : Big
 Codec ID                                 : A_DTS
 Duration                                 : 1h 35mn
 Bit rate mode                            : Variable / Constant
 Bit rate                                 : Unknown / 1 509 Kbps
 Channel(s)                               : 8 channels / 6 channels
 Channel positions                        : Front: L C R, Side: L R, Back: L R, LFE / Front: L C R, Side: L R, LFE
 Sampling rate                            : 48.0 KHz
 Frame rate                               : 93.750 fps (512 spf)
 Bit depth                                : 24 bits
 Compression mode                         : Lossless / Lossy
 Title                                    : Sully.2016.1080p.BluRay.REMUX.AVC.DTS-HD.MA.TrueHD.7.1.Atmos-FGT
 Language                                 : English
 Default                                  : Yes
 Forced                                   : No

 Audio #2
 ID                                       : 3
 Format                                   : Atmos / TrueHD
 Codec ID                                 : A_TRUEHD
 Bit rate mode                            : Variable
 Maximum bit rate                         : 12.0 Mbps
 Channel(s)                               : Object Based / 8 channels
 Channel positions                        : Object Based / Front: L C R, Side: L R, Back: L R, LFE
 Sampling rate                            :  / 48.0 KHz
 Frame rate                               : 1 200.000 fps (40 spf)
 Compression mode                         : Lossless
 Title                                    : Sully.2016.1080p.BluRay.REMUX.AVC.DTS-HD.MA.TrueHD.7.1.Atmos-FGT
 Language                                 : English
 Default                                  : No
 Forced                                   : No

 Audio #3
 ID                                       : 4
 Format                                   : AC-3
 Format/Info                              : Audio Coding 3
 Mode extension                           : CM (complete main)
 Format settings, Endianness              : Big
 Codec ID                                 : A_AC3
 Duration                                 : 1h 35mn
 Bit rate mode                            : Constant
 Bit rate                                 : 640 Kbps
 Channel(s)                               : 6 channels
 Channel positions                        : Front: L C R, Side: L R, LFE
 Sampling rate                            : 48.0 KHz
 Frame rate                               : 31.250 fps (1536 spf)
 Compression mode                         : Lossy
 Stream size                              : 439 MiB (2%)
 Title                                    : Sully.2016.1080p.BluRay.REMUX.AVC.DTS-HD.MA.TrueHD.7.1.Atmos-FGT
 Language                                 : English
 Default                                  : No
 Forced                                   : No

 Audio #4
 ID                                       : 5
 Format                                   : AC-3
 Format/Info                              : Audio Coding 3
 Mode extension                           : CM (complete main)
 Format settings, Endianness              : Big
 Codec ID                                 : A_AC3
 Duration                                 : 1h 35mn
 Bit rate mode                            : Constant
 Bit rate                                 : 448 Kbps
 Channel(s)                               : 6 channels
 Channel positions                        : Front: L C R, Side: L R, LFE
 Sampling rate                            : 48.0 KHz
 Frame rate                               : 31.250 fps (1536 spf)
 Compression mode                         : Lossy
 Stream size                              : 307 MiB (1%)
 Title                                    : Sully.2016.1080p.BluRay.REMUX.AVC.DTS-HD.MA.TrueHD.7.1.Atmos-FGT
 Language                                 : English
 Default                                  : No
 Forced                                   : No

 Audio #5
 ID                                       : 6
 Format                                   : AC-3
 Format/Info                              : Audio Coding 3
 Mode extension                           : CM (complete main)
 Format settings, Endianness              : Big
 Codec ID                                 : A_AC3
 Duration                                 : 1h 35mn
 Bit rate mode                            : Constant
 Bit rate                                 : 448 Kbps
 Channel(s)                               : 6 channels
 Channel positions                        : Front: L C R, Side: L R, LFE
 Sampling rate                            : 48.0 KHz
 Frame rate                               : 31.250 fps (1536 spf)
 Compression mode                         : Lossy
 Stream size                              : 307 MiB (1%)
 Title                                    : Sully.2016.1080p.BluRay.REMUX.AVC.DTS-HD.MA.TrueHD.7.1.Atmos-FGT
 Language                                 : French
 Default                                  : No
 Forced                                   : No

 Audio #6
 ID                                       : 7
 Format                                   : AC-3
 Format/Info                              : Audio Coding 3
 Mode extension                           : CM (complete main)
 Format settings, Endianness              : Big
 Codec ID                                 : A_AC3
 Duration                                 : 1h 35mn
 Bit rate mode                            : Constant
 Bit rate                                 : 448 Kbps
 Channel(s)                               : 6 channels
 Channel positions                        : Front: L C R, Side: L R, LFE
 Sampling rate                            : 48.0 KHz
 Frame rate                               : 31.250 fps (1536 spf)
 Compression mode                         : Lossy
 Stream size                              : 307 MiB (1%)
 Title                                    : Sully.2016.1080p.BluRay.REMUX.AVC.DTS-HD.MA.TrueHD.7.1.Atmos-FGT
 Language                                 : Spanish
 Default                                  : No
 Forced                                   : No

 Audio #7
 ID                                       : 8
 Format                                   : AC-3
 Format/Info                              : Audio Coding 3
 Mode extension                           : CM (complete main)
 Format settings, Endianness              : Big
 Codec ID                                 : A_AC3
 Duration                                 : 1h 35mn
 Bit rate mode                            : Constant
 Bit rate                                 : 448 Kbps
 Channel(s)                               : 6 channels
 Channel positions                        : Front: L C R, Side: L R, LFE
 Sampling rate                            : 48.0 KHz
 Frame rate                               : 31.250 fps (1536 spf)
 Compression mode                         : Lossy
 Stream size                              : 307 MiB (1%)
 Title                                    : Sully.2016.1080p.BluRay.REMUX.AVC.DTS-HD.MA.TrueHD.7.1.Atmos-FGT
 Language                                 : Portuguese
 Default                                  : No
 Forced                                   : No

 Text #1
 ID                                       : 9
 Format                                   : PGS
 Muxing mode                              : zlib
 Codec ID                                 : S_HDMV/PGS
 Codec ID/Info                            : Picture based subtitle format used on BDs/HD-DVDs
 Title                                    : English-PGS
 Language                                 : English
 Default                                  : No
 Forced                                   : No

 Text #2
 ID                                       : 10
 Format                                   : PGS
 Muxing mode                              : zlib
 Codec ID                                 : S_HDMV/PGS
 Codec ID/Info                            : Picture based subtitle format used on BDs/HD-DVDs
 Title                                    : French-PGS
 Language                                 : French
 Default                                  : No
 Forced                                   : No

 Text #3
 ID                                       : 11
 Format                                   : PGS
 Muxing mode                              : zlib
 Codec ID                                 : S_HDMV/PGS
 Codec ID/Info                            : Picture based subtitle format used on BDs/HD-DVDs
 Title                                    : Spanish-PGS
 Language                                 : Spanish
 Default                                  : No
 Forced                                   : No

 Text #4
 ID                                       : 12
 Format                                   : PGS
 Muxing mode                              : zlib
 Codec ID                                 : S_HDMV/PGS
 Codec ID/Info                            : Picture based subtitle format used on BDs/HD-DVDs
 Title                                    : Portuguese-PGS
 Language                                 : Portuguese
 Default                                  : No
 Forced                                   : No

 Text #5
 ID                                       : 13
 Format                                   : PGS
 Muxing mode                              : zlib
 Codec ID                                 : S_HDMV/PGS
 Codec ID/Info                            : Picture based subtitle format used on BDs/HD-DVDs
 Title                                    : French-FORCED-PGS
 Language                                 : French
 Default                                  : No
 Forced                                   : No

 Text #6
 ID                                       : 14
 Format                                   : PGS
 Muxing mode                              : zlib
 Codec ID                                 : S_HDMV/PGS
 Codec ID/Info                            : Picture based subtitle format used on BDs/HD-DVDs
 Title                                    : Spanish-FORCED-PGS
 Language                                 : Spanish
 Default                                  : No
 Forced                                   : No

 Text #7
 ID                                       : 15
 Format                                   : PGS
 Muxing mode                              : zlib
 Codec ID                                 : S_HDMV/PGS
 Codec ID/Info                            : Picture based subtitle format used on BDs/HD-DVDs
 Title                                    : Portuguese-FORCED-PGS
 Language                                 : Portuguese
 Default                                  : No
 Forced                                   : No

 Menu
 00:00:00.000                             : en:Chapter 01
 00:11:12.505                             : en:Chapter 02
 00:18:06.168                             : en:Chapter 03
 00:29:57.921                             : en:Chapter 04
 00:38:55.416                             : en:Chapter 05
 00:49:20.749                             : en:Chapter 06
 01:00:50.855                             : en:Chapter 07
 01:08:16.383                             : en:Chapter 08
 01:18:09.810                             : en:Chapter 09
 01:26:59.797                             : en:Chapter 10


Imagem Imagem
Imagem Imagem

phpBB [video]


LINKS:

ed2k: Sully.2016.1080p.BluRay.REMUX.AVC.DTS-HD.MA.TrueHD.7.1.Atmos-FGT.mkv  [25.08 Gb]
ed2k: Sully.2016.1080p.BluRay.REMUX.AVC.DTS-HD.MA.TrueHD.7.1.Atmos-FGT.nfo  [13.6 Kb]
ed2k: Sully.2016.1080p.BluRay.REMUX.AVC.DTS-HD.MA.TrueHD.7.1.Atmos-FGT.srt  [106.2 Kb]
Não tem Permissão para ver os ficheiros anexados nesta mensagem.
Imagem

Responder

Voltar para “Alta Definição // High Definition (Com Legendas/With Subtitles)”

Quem está ligado:

Utilizadores neste fórum: Nenhum utilizador registado e 1 visitante