Green Book (2018) *1080p BluRay* - HDC

1080p (a1080p, 1080p)
Qualquer Alta Resolução // Any High Definition release, be it full (BD, HDDVD, HDTV stream, BDRip, HDDVDRip, HDTVRip)

Moderador: Moderador

Responder
Avatar do Utilizador
Lost_Rider34
Administrador
Administrador
Mensagens: 10642
Registado: 15 out 2008, 14:07
Localização: Aqui
Contacto:

Green Book (2018) *1080p BluRay* - HDC

Mensagem por Lost_Rider34 » 15 mar 2019, 21:12

Imagem
Quando Tony Lip (Viggo Mortensen), um segurança ítalo-americano, é contratado como motorista do Dr. Don Shirley (Mahershala Ali), um pianista negro de classe alta, durante uma turnê pelo sul dos Estados Unidos, eles devem seguir o "O Guia" para leva-los aos poucos estabelecimentos que eram seguros para os afro-americanos. Confrontados com o racismo, o perigo – assim como pela humanidade e o humor inesperados - eles são forçados a deixar de lado as diferenças para sobreviver e prosperar nessa jornada.

When Tony Lip (Mortensen), a bouncer from an Italian-American neighborhood in the Bronx, is hired to drive Dr. Don Shirley (Ali), a world-class Black pianist, on a concert tour from Manhattan to the Deep South, they must rely on "The Green Book" to guide them to the few establishments that were then safe for African-Americans. Confronted with racism, danger-as well as unexpected humanity and humor-they are forced to set aside differences to survive and thrive on the journey of a lifetime.
imdb.com
Green Book (2018)

Capa
Sinopse:A working-class Italian-American bouncer becomes the driver of an African-American classical pianist on a tour of venues through the 1960s American South.
Pontuação:8.3
Duração:130 minutos
Idioma:English, Italian, Russian, German
Realizador:Peter Farrelly
Actores:Viggo Mortensen, Mahershala Ali, Linda Cardellini, Sebastian Maniscalco, Dimiter D. Marinov
  
Fonte:http://www.imdb.com/title/tt6966692
Última Actualização:Domingo Dezembro 30, 2018 07:46

Código: Selecionar todos

Video
 ID : 1
 Format : AVC
 Format/Info : Advanced Video Codec
 Format profile : High@L4.1
 Format settings : CABAC / 4 Ref Frames
 Format settings, CABAC : Yes
 Format settings, ReFrames : 4 frames
 Codec ID : V_MPEG4/ISO/AVC
 Duration : 2 h 10 min
 Bit rate : 16.0 Mb/s
 Width : 1 920 pixels
 Height : 958 pixels
 Display aspect ratio : 2.004
 Frame rate mode : Constant
 Frame rate : 23.976 (24000/1001) FPS
 Color space : YUV
 Chroma subsampling : 4:2:0
 Bit depth : 8 bits
 Scan type : Progressive
 Bits/(Pixel*Frame) : 0.363
 Stream size : 14.5 GiB (91%)
 Title : Green.Book.2018.1080p.BluRay.x264.DTS-HDC
 Writing library : x264 core 148 r2665kMod a01e339
 Encoding settings : cabac=1 / ref=4 / deblock=1:-3:-3 / analyse=0x3:0x133 / me=umh / subme=11 / psy=1 / fade_compensate=0.00 / psy_rd=1.05:0.00 / mixed_ref=1 / me_range=48 / chroma_me=1 / trellis=2 / 8x8dct=1 / cqm=0 / deadzone=21,11 / fast_pskip=0 / chroma_qp_offset=-2 / threads=24 / lookahead_threads=4 / sliced_threads=0 / nr=0 / decimate=0 / interlaced=0 / bluray_compat=0 / constrained_intra=0 / fgo=0 / bframes=8 / b_pyramid=2 / b_adapt=2 / b_bias=0 / direct=3 / weightb=1 / open_gop=0 / weightp=2 / keyint=240 / keyint_min=24 / scenecut=40 / intra_refresh=0 / rc=2pass / mbtree=0 / bitrate=16000 / ratetol=1.0 / qcomp=0.70 / qpmin=0 / qpmax=69 / qpstep=4 / cplxblur=20.0 / qblur=0.5 / ip_ratio=1.20 / pb_ratio=1.20 / aq=3:0.80
 Language : English
 Default : Yes
 Forced : No

 Audio
 ID : 2
 Format : DTS
 Format/Info : Digital Theater Systems
 Codec ID : A_DTS
 Duration : 2 h 10 min
 Bit rate mode : Constant
 Bit rate : 1 509 kb/s
 Channel(s) : 6 channels
 Channel layout : C L R Ls Rs LFE
 Sampling rate : 48.0 kHz
 Frame rate : 93.750 FPS (512 SPF)
 Bit depth : 24 bits
 Compression mode : Lossy
 Stream size : 1.37 GiB (9%)
 Title : Green.Book.2018.1080p.BluRay.x264.DTS-HDC
 Language : English
 Default : Yes
 Forced : No

 Text #1
 ID : 3
 Format : UTF-8
 Codec ID : S_TEXT/UTF8
 Codec ID/Info : UTF-8 Plain Text
 Duration : 2 h 1 min
 Bit rate : 62 b/s
 Count of elements : 1734
 Stream size : 55.8 KiB (0%)
 Language : English
 Default : Yes
 Forced : No

 Text #2
 ID : 4
 Format : UTF-8
 Codec ID : S_TEXT/UTF8
 Codec ID/Info : UTF-8 Plain Text
 Duration : 2 h 7 min
 Bit rate : 65 b/s
 Count of elements : 1968
 Stream size : 61.4 KiB (0%)
 Title : SDH
 Language : English
 Default : No
 Forced : No

 Menu
 00:00:00.000 : en:00:00:00.000
 00:05:43.009 : en:00:05:43.009
 00:11:50.043 : en:00:11:50.043
 00:18:17.805 : en:00:18:17.805
 00:23:46.675 : en:00:23:46.675
 00:28:37.382 : en:00:28:37.382
 00:34:38.785 : en:00:34:38.785
 00:41:13.304 : en:00:41:13.304
 00:46:44.593 : en:00:46:44.593
 00:54:19.173 : en:00:54:19.173
 01:02:42.342 : en:01:02:42.342
 01:10:42.655 : en:01:10:42.655
 01:16:16.155 : en:01:16:16.155
 01:24:30.274 : en:01:24:30.274
 01:30:37.724 : en:01:30:37.724
 01:36:53.266 : en:01:36:53.266
 01:44:56.081 : en:01:44:56.081
 01:51:12.124 : en:01:51:12.124
 01:54:38.872 : en:01:54:38.872
 02:02:25.505 : en:02:02:25.505
Imagem Imagem
Imagem Imagem

phpBB [video]


LINKS:

ed2k: Green.Book.2018.1080p.BluRay.x264.DTS-HDC.[TheRostrum.net].mkv  [15.91 Gb]
ed2k: Green.Book.2018.1080p.BluRay.x264.DTS-HDC.[TheRostrum.net].srt  [134.1 Kb]
Não tem Permissão para ver os ficheiros anexados nesta mensagem.
Imagem

Imagem

Avatar do Utilizador
coutinho
Utilizador
Utilizador
Mensagens: 1470
Registado: 26 out 2011, 11:06

Re: Green Book (2018) *1080p BluRay* - HDC

Mensagem por coutinho » 16 mar 2019, 07:53

Vamos a ele! Obrigado

Responder

Voltar para “Alta Definição // High Definition (Com Legendas/With Subtitles)”