Pokemon Detective Pikachu (2019) [PT] *720p BluRay* - Ninasat

Moderador: Moderador

Responder
Avatar do Utilizador
Lost_Rider34
Administrador
Administrador
Mensagens: 10742
Registado: 15 out 2008, 14:07
Localização: Aqui
Contacto:

Pokemon Detective Pikachu (2019) [PT] *720p BluRay* - Ninasat

Mensagem por Lost_Rider34 » 12 ago 2019, 22:35

Imagem
Após seu pai, um detetive, desaparecer em um acidente de carro, Tim Goodman (Justice Smith) chega à Ryme City e conhece o Detetive Pikachu (Ryan Reynolds), sendo coincidentemente o único a compreender o que ele fala. Juntos, eles resolvem alguns mistérios na cidade, incluindo o paradeiro de seu pai.

The story begins when ace detective Harry Goodman goes mysteriously missing, prompting his 21-year-old son Tim to find out what happened. Aiding in the investigation is Harry's former Pokémon partner, Detective Pikachu: a hilariously wise-cracking, adorable super-sleuth who is a puzzlement even to himself. Finding that they are uniquely equipped to communicate with one another, Tim and Pikachu join forces on a thrilling adventure to unravel the tangled mystery. Chasing clues together through the neon-lit streets of Ryme City - a sprawling, modern metropolis where humans and Pokémon live side by side in a hyper-realistic live-action world - they encounter a diverse cast of Pokémon characters and uncover a shocking plot that could destroy this peaceful co-existence and threaten the whole Pokémon universe.
imdb.com
Pokémon Detective Pikachu (2019)

Capa
Sinopse:In a world where people collect Pokémon to do battle, a boy comes across an intelligent talking Pikachu who seeks to be a detective.
Pontuação:6.8
Duração:104 minutos
Idioma:English
Realizador:Rob Letterman
Actores:Ryan Reynolds, Justice Smith, Kathryn Newton, Bill Nighy, Ken Watanabe
  
Fonte:http://www.imdb.com/title/tt5884052
Última Actualização:Domingo Julho 28, 2019 20:53

Código: Selecionar todos

General
Unique ID                   : 291919321599226588472537044382355676714 (0xDB9D9DC49CC088278C1EDFD868CDDE2A)
Complete name               : C:\Pokemon.Detective.Pikachu.2019.720p.BluRay.PORTUGUESE.DD5.1.x264-Ninasat.mkv
Format                      : Matroska
Format version              : Version 4 / Version 2
File size                   : 4.75 GiB
Duration                    : 1 h 44 min
Overall bit rate            : 6 505 kb/s
Encoded date                : UTC 2019-07-23 21:46:03
Writing application         : mkvmerge v35.0.0 ('All The Love In The World') 64-bit
Writing library             : libebml v1.3.9 + libmatroska v1.5.2

Video
ID                          : 1
Format                      : AVC
Format/Info                 : Advanced Video Codec
Format profile              : High@L4.1
Format settings             : CABAC / 12 Ref Frames
Format settings, CABAC      : Yes
Format settings, RefFrames  : 12 frames
Codec ID                    : V_MPEG4/ISO/AVC
Duration                    : 1 h 44 min
Bit rate                    : 6 000 kb/s
Width                       : 1 280 pixels
Height                      : 536 pixels
Display aspect ratio        : 2.40:1
Frame rate mode             : Constant
Frame rate                  : 23.976 (24000/1001) FPS
Color space                 : YUV
Chroma subsampling          : 4:2:0
Bit depth                   : 8 bits
Scan type                   : Progressive
Bits/(Pixel*Frame)          : 0.365
Stream size                 : 4.38 GiB (92%)
Writing library             : x264 core 155 r2867+74 66b5600 t_mod_Custom_2 [8-bit@all X86_64]
Encoding settings           : cabac=1 / ref=12 / deblock=1:-3:-3 / analyse=0x3:0x133 / me=umh / subme=11 / psy=1 / fade_compensate=0.00 / psy_rd=1.00:0.00 / mixed_ref=1 / me_range=32 / chroma_me=1 / trellis=2 / 8x8dct=1 / cqm=0 / deadzone=21,11 / fast_pskip=0 / chroma_qp_offset=-2 / threads=17 / lookahead_threads=2 / sliced_threads=0 / nr=0 / decimate=0 / interlaced=0 / bluray_compat=0 / constrained_intra=0 / fgo=0 / bframes=8 / b_pyramid=2 / b_adapt=2 / b_bias=0 / direct=3 / weightb=1 / open_gop=0 / weightp=2 / keyint=250 / keyint_min=23 / scenecut=40 / intra_refresh=0 / rc=2pass / mbtree=0 / bitrate=6000 / ratetol=1.0 / qcomp=0.60 / qpmin=0:0:0 / qpmax=69:69:69 / qpstep=4 / cplxblur=20.0 / qblur=0.5 / ip_ratio=1.30 / pb_ratio=1.20 / aq=3:0.80 / aq-sensitivity=10.00 / aq-factor=1.00:1.00:1.00 / aq2=0 / aq3=0
Language                    : English
Default                     : Yes
Forced                      : No
Color range                 : Limited
Matrix coefficients         : BT.709

Audio
ID                          : 2
Format                      : AC-3
Format/Info                 : Audio Coding 3
Format settings, Endianness : Big
Codec ID                    : A_AC3
Duration                    : 1 h 44 min
Bit rate mode               : Constant
Bit rate                    : 448 kb/s
Channel(s)                  : 6 channels
Channel positions           : Front: L C R, Side: L R, LFE
Sampling rate               : 48.0 kHz
Frame rate                  : 31.250 FPS (1536 SPF)
Bit depth                   : 16 bits
Compression mode            : Lossy
Stream size                 : 335 MiB (7%)
Language                    : Portuguese
Service kind                : Complete Main
Default                     : Yes
Forced                      : No

Text #1
ID                          : 3
Format                      : PGS
Muxing mode                 : zlib
Codec ID                    : S_HDMV/PGS
Codec ID/Info               : Picture based subtitle format used on BDs/HD-DVDs
Duration                    : 1 h 36 min
Bit rate                    : 41.4 kb/s
Count of elements           : 3194
Stream size                 : 28.6 MiB (1%)
Title                       : SDH
Language                    : English
Default                     : Yes
Forced                      : No

Text #2
ID                          : 4
Format                      : PGS
Muxing mode                 : zlib
Codec ID                    : S_HDMV/PGS
Codec ID/Info               : Picture based subtitle format used on BDs/HD-DVDs
Duration                    : 1 h 43 min
Bit rate                    : 32.8 kb/s
Count of elements           : 2610
Stream size                 : 24.3 MiB (0%)
Language                    : Portuguese
Default                     : No
Forced                      : No

Text #3
ID                          : 5
Format                      : PGS
Muxing mode                 : zlib
Codec ID                    : S_HDMV/PGS
Codec ID/Info               : Picture based subtitle format used on BDs/HD-DVDs
Duration                    : 1 h 42 min
Bit rate                    : 32.2 kb/s
Count of elements           : 2594
Stream size                 : 23.6 MiB (0%)
Language                    : Spanish
Default                     : No
Forced                      : No

Text #4
ID                          : 6
Format                      : PGS
Muxing mode                 : zlib
Codec ID                    : S_HDMV/PGS
Codec ID/Info               : Picture based subtitle format used on BDs/HD-DVDs
Duration                    : 1 h 42 min
Bit rate                    : 27.0 kb/s
Count of elements           : 2684
Stream size                 : 19.8 MiB (0%)
Language                    : French
Default                     : No
Forced                      : No

Text #5
ID                          : 7
Format                      : PGS
Muxing mode                 : zlib
Codec ID                    : S_HDMV/PGS
Codec ID/Info               : Picture based subtitle format used on BDs/HD-DVDs
Duration                    : 1 h 7 min
Bit rate                    : 427 b/s
Count of elements           : 20
Stream size                 : 211 KiB (0%)
Language                    : Spanish
Default                     : No
Forced                      : No

Text #6
ID                          : 8
Format                      : PGS
Muxing mode                 : zlib
Codec ID                    : S_HDMV/PGS
Codec ID/Info               : Picture based subtitle format used on BDs/HD-DVDs
Duration                    : 39 min 47 s
Bit rate                    : 347 b/s
Count of elements           : 8
Stream size                 : 101 KiB (0%)
Language                    : French
Default                     : No
Forced                      : No

Text #7
ID                          : 9
Format                      : PGS
Muxing mode                 : zlib
Codec ID                    : S_HDMV/PGS
Codec ID/Info               : Picture based subtitle format used on BDs/HD-DVDs
Duration                    : 1 min 50 s
Bit rate                    : 2 659 b/s
Count of elements           : 4
Stream size                 : 35.9 KiB (0%)
Language                    : Portuguese
Default                     : No
Forced                      : No

Menu
00:00:00.000                : en:Chapter 01
00:06:55.957                : en:Chapter 02
00:15:36.686                : en:Chapter 03
00:24:06.445                : en:Chapter 04
00:31:00.108                : en:Chapter 05
00:40:45.943                : en:Chapter 06
00:49:57.077                : en:Chapter 07
00:59:49.669                : en:Chapter 08
01:09:22.784                : en:Chapter 09
01:16:59.990                : en:Chapter 10
01:23:20.829                : en:Chapter 11
01:30:55.367                : en:Chapter 12
01:35:49.160                : en:Chapter 13
Imagem Imagem


phpBB [video]



LINK:

ed2k: Pokemon.Detective.Pikachu.2019.720p.BluRay.PORTUGUESE.DD5.1.x264-Ninasat.mkv  [4.75 Gb]
Imagem

giraldino
Utilizador
Utilizador
Mensagens: 2889
Registado: 22 dez 2010, 22:24

Re: Pokemon Detective Pikachu (2019) [PT] *720p BluRay* - Ninasat

Mensagem por giraldino » 14 ago 2019, 22:05

Obrigado.

Avatar do Utilizador
Lost_Rider34
Administrador
Administrador
Mensagens: 10742
Registado: 15 out 2008, 14:07
Localização: Aqui
Contacto:

Re: Pokemon Detective Pikachu (2019) [PT] *720p BluRay* - Ninasat

Mensagem por Lost_Rider34 » 09 nov 2019, 14:15

….:FONTE RE-ACTIVADA:....
Imagem

Responder

Voltar para “Filmes Áudio // Movies Sound Doubled”