Justin and the Knights of Valour (2013) *PT DVDRip* - EVO

Moderador: Moderador

Responder
Avatar do Utilizador
MoRsE
Moderador Global
Moderador Global
Mensagens: 1794
Registado: 29 jul 2009, 02:32
Localização: Azores

Justin and the Knights of Valour (2013) *PT DVDRip* - EVO

Mensagem por MoRsE » 14 jun 2014, 14:12

Imagem


Sinopse
Justin vive num reino onde os burocratas dominam e os cavaleiros foram proscritos. O seu sonho é tornar-se um Cavaleiro de Valor, como o seu avô, mas o seu pai, Reginald, o Chefe dos Conselheiros da Rainha, quer que o filho siga as suas pisadas e venha a ser advogado. Depois de uma inspiradora visita à sua querida Avó e de dizer adeus à sua suposta amada Lara, Justin deixa a casa e embarca numa viagem para se tornar Cavaleiro. Pelo caminho conhece a bela e vivaz Talia, um estranho feiticeiro chamado Melquiades, o belo Sir Clorex e três monges que se tornam seus mentores, Blucher, Legantir e Braulio, que o vão ensinar e testar nas velhas tradições dos Cavaleiros de Honra. Apesar de improvável candidato a Cavaleiro, Justin tem de estar pronto rapidamente para o desafio, quando o antigo e banido Cavaleiro Sir Heraclio e o seu exército, liderado por Sota, regressam e ameaçam destruir o reino.


imdb.com
Justin - Völlig verrittert! (2013)

Capa
Sinopse:A young boy becomes a man as he embarks on a quest to become a knight.
Pontuação:6.1
Duração:90 minutos
Idioma:English
Realizador:Manuel Sicilia
Actores:Freddie Highmore, Antonio Banderas, James Cosmo, Charles Dance, Tamsin Egerton
  
Fonte:http://www.imdb.com/title/tt1639826
Última Actualização:Segunda Março 12, 2018 10:28


Código: Selecionar todos

General
Complete name                            : E:\eMule\Justin.and.the.Knights.of.Valour.(2013).PT.DVDRip.XviD.AC3-EVO.[TheRostrum.net].avi
Format                                   : AVI
Format/Info                              : Audio Video Interleave
File size                                : 788 MiB
Duration                                 : 1h 28mn
Overall bit rate                         : 1 242 Kbps

Video
ID                                       : 0
Format                                   : MPEG-4 Visual
Format profile                           : Advanced Simple@L4
Format settings, BVOP                    : 2
Format settings, QPel                    : No
Format settings, GMC                     : No warppoints
Format settings, Matrix                  : Default (H.263)
Codec ID                                 : DIVX
Codec ID/Info                            : Project Mayo
Codec ID/Hint                            : DivX 4
Duration                                 : 1h 28mn
Bit rate                                 : 1 103 Kbps
Width                                    : 720 pixels
Height                                   : 400 pixels
Display aspect ratio                     : 16:9
Frame rate                               : 25.000 fps
Color space                              : YUV
Chroma subsampling                       : 4:2:0
Bit depth                                : 8 bits
Scan type                                : Progressive
Compression mode                         : Lossy
Bits/(Pixel*Frame)                       : 0.153
Stream size                              : 699 MiB (89%)
Writing library                          : XviD 64

Audio
ID                                       : 1
Format                                   : AC-3
Format/Info                              : Audio Coding 3
Mode extension                           : CM (complete main)
Format settings, Endianness              : Big
Codec ID                                 : 2000
Duration                                 : 1h 28mn
Bit rate mode                            : Constant
Bit rate                                 : 128 Kbps
Channel(s)                               : 6 channels
Channel positions                        : Front: L C R, Side: L R, LFE
Sampling rate                            : 48.0 KHz
Bit depth                                : 16 bits
Compression mode                         : Lossy
Stream size                              : 81.2 MiB (10%)
Alignment                                : Aligned on interleaves
Interleave, duration                     : 32 ms (0.80 video frame)



Imagem Imagem
Imagem Imagem
Imagem Imagem


ed2k: Justin.and.the.Knights.of.Valour.(2013).PT.DVDRip.XviD.AC3-EVO.avi  [787.74 Mb]
Imagem

Avatar do Utilizador
CompisKa
Utilizador
Utilizador
Mensagens: 15
Registado: 16 out 2009, 16:20

Re: Justin and the Knights of Valour (2013) *PT DVDRip* - EVO

Mensagem por CompisKa » 20 jul 2014, 16:25

Obgd pela partilha. :cheers:

RaulTGomes
Utilizador
Utilizador
Mensagens: 3
Registado: 29 mai 2016, 16:34

Re: Justin and the Knights of Valour (2013) *PT DVDRip* - EVO

Mensagem por RaulTGomes » 29 mai 2016, 18:45

obrigado

Responder

Voltar para “Filmes Áudio // Movies Sound Doubled”