Three Coins in the Fountain (1954) [Dual (spa-eng)] *DVDRip* - divxclasico

Filmes que aguardam legendas ou não necessitam delas.

Moderador: Moderador

Responder
Avatar do Utilizador
arf100c
eMuleCoop
eMuleCoop
Mensagens: 7317
Registado: 08 jun 2009, 15:48

Three Coins in the Fountain (1954) [Dual (spa-eng)] *DVDRip* - divxclasico

Mensagem por arf100c » 21 nov 2012, 14:26

Imagem

Sinopse
Três amigas americanas trabalhando na Itália jogam moedas na Fontana de Trevi a fim de realizar o mesmo desejo: conseguir o homem de seus sonhos. Dorothy McGuire é a secretária apaixonada pelo chefe Clifton Webb. Jean Peters desafia as normas do escritório namorando um italiano colega de trabalho, Rossano Brazzi. Maggie McNamara, a recém-chegada ao escritório, encontra seu príncipe encantado italiano na figura de Louis
imdb.com
Three Coins in the Fountain (1954)

Capa
Sinopse:Three American women working in Rome, Italy, share a spacious apartment and the desire to find love and marriage, each experiencing a few bumps in their journeys to romance.
Pontuação:6.3
Duração:102 minutos
Idioma:English, Italian
Realizador:Jean Negulesco
Actores:Clifton Webb, Dorothy McGuire, Jean Peters, Louis Jourdan, Maggie McNamara
  
Fonte:http://www.imdb.com/title/tt0047580
Última Actualização:Segunda Março 12, 2018 02:26

Código: Selecionar todos

General
Complete name                            : D:\eMule\Three.Coins.in.the.Fountain.(1954).DVDRip.XviD.Eng-Spa-divxclasico.avi
Format                                   : AVI
Format/Info                              : Audio Video Interleave
File size                                : 870 MiB
Duration                                 : 1h 37mn
Overall bit rate mode                    : Variable
Overall bit rate                         : 1 245 Kbps
Writing application                      : VirtualDubMod 1.5.10.1 (build 2366/release)
Writing library                          : VirtualDubMod build 2366/release

Video
ID                                       : 0
Format                                   : MPEG-4 Visual
Format profile                           : Advanced Simple@L5
Format settings, BVOP                    : 2
Format settings, QPel                    : No
Format settings, GMC                     : No warppoints
Format settings, Matrix                  : Default (H.263)
Codec ID                                 : XVID
Codec ID/Hint                            : XviD
Duration                                 : 1h 37mn
Bit rate                                 : 982 Kbps
Width                                    : 640 pixels
Height                                   : 240 pixels
Display aspect ratio                     : 2.667
Frame rate                               : 25.000 fps
Color space                              : YUV
Chroma subsampling                       : 4:2:0
Bit depth                                : 8 bits
Scan type                                : Progressive
Compression mode                         : Lossy
Bits/(Pixel*Frame)                       : 0.256
Stream size                              : 687 MiB (79%)
Writing library                          : XviD 0039 build=2005.09.16 (UTC 2005-09-16)

Audio #1
ID                                       : 1
Format                                   : MPEG Audio
Format version                           : Version 1
Format profile                           : Layer 3
Mode                                     : Joint stereo
Mode extension                           : MS Stereo
Codec ID                                 : 55
Codec ID/Hint                            : MP3
Duration                                 : 1h 37mn
Bit rate mode                            : Variable
Bit rate                                 : 128 Kbps
Channel(s)                               : 2 channels
Sampling rate                            : 48.0 KHz
Compression mode                         : Lossy
Stream size                              : 87.4 MiB (10%)
Alignment                                : Aligned on interleaves
Interleave, duration                     : 24 ms (0.60 video frame)
Interleave, preload duration             : 147 ms
Writing library                          : LAME3.90.
Encoding settings                        : -m j -V 4 -q 2 -lowpass 17.6 --abr 128

Audio #2
ID                                       : 2
Format                                   : MPEG Audio
Format version                           : Version 1
Format profile                           : Layer 3
Mode                                     : Joint stereo
Mode extension                           : MS Stereo
Codec ID                                 : 55
Codec ID/Hint                            : MP3
Duration                                 : 1h 37mn
Bit rate mode                            : Variable
Bit rate                                 : 116 Kbps
Nominal bit rate                         : 128 Kbps
Channel(s)                               : 2 channels
Sampling rate                            : 48.0 KHz
Compression mode                         : Lossy
Stream size                              : 81.3 MiB (9%)
Alignment                                : Aligned on interleaves
Interleave, duration                     : 24 ms (0.60 video frame)
Interleave, preload duration             : 158 ms
Writing library                          : LAME3.90.
Encoding settings                        : -m j -V 4 -q 2 -lowpass 17.6 --abr 128




ed2k: Three.Coins.in.the.Fountain.(1954).DVDRip.XviD.Eng-Spa-divxclasico.avi  [869.96 Mb]
Não tem Permissão para ver os ficheiros anexados nesta mensagem.

Avatar do Utilizador
arf100c
eMuleCoop
eMuleCoop
Mensagens: 7317
Registado: 08 jun 2009, 15:48

Re: Three Coins in the Fountain (1954) [Dual (spa-eng)] *DVDRip* - divxclasico

Mensagem por arf100c » 21 nov 2012, 14:28

diz ser para release de 869mb (25 fps) mas não verifiquei
( anexada )

Avatar do Utilizador
tainacan
Utilizador
Utilizador
Mensagens: 558
Registado: 05 mai 2011, 06:04

Re: Three Coins in the Fountain (1954) [Dual (spa-eng)] *DVDRip* - divxclasico

Mensagem por tainacan » 20 fev 2019, 14:32

:you2: :you2: :you2:

:cavalinho: :cavalinho: :cavalinho:

Responder

Voltar para “Filmes sem Legendas // Movies without Subtitles”