Sciuscià (1946) *DVDRip* - shadow

Moderador: Moderador

Responder
Avatar do Utilizador
MuMuGoN
eMuleCoop
eMuleCoop
Mensagens: 584
Registado: 23 jul 2012, 02:08

Sciuscià (1946) *DVDRip* - shadow

Mensagem por MuMuGoN » 07 nov 2014, 00:02

Imagem

Sinopse
Um retrato das crianças de rua na Itália do pós-guerra. Giuseppe e Pasquale são duas das crianças, dois grandes amigos que vivem a engraxar os sapatos de soldados americanos. Eles dividem as suas esperanças e os seus sonhos inocentes de um futuro melhor, mas acabam presos numa terrí­vel instituição para menores.
imdb.com
Shoeshine (1946)

Capa
Sinopse:Two shoeshine boys in postwar Rome, Italy, save up to buy a horse, but their involvement as dupes in a burglary lands them in juvenile prison where the experience take a devastating toll on their friendship.
Pontuação:8.0
Duração:90 minutos
Idioma:Italian, English
Realizador:Vittorio De Sica
Actores:Franco Interlenghi, Rinaldo Smordoni, Annielo Mele, Bruno Ortenzi, Emilio Cigoli
  
Fonte:http://www.imdb.com/title/tt0038913
Última Actualização:Segunda Março 12, 2018 00:46

Código: Selecionar todos

   General
      Complete name : Sciuscia (Shoeshine) 1946 Dvdrip.avi
      Format : AVI
      Format/Info : Audio Video Interleave
      File size : 892 MiB
      Duration : 1h 27mn
      Overall bit rate : 1 419 Kbps
      Writing application : VirtualDubMod 1.5.10.2 (build 2540/release)
      Writing library : VirtualDubMod build 2540/release
   Video #0
      ID : 0
      Format : MPEG-4 Visual
      Format profile : Advanced Simple@L5
      Format settings, BVOP : 2
      Format settings, QPel : No
      Format settings, GMC : No warppoints
      Format settings, Matrix : Default (MPEG)
      Codec ID : XVID
      Codec ID/Hint : XviD
      Duration : 1h 27mn
      Bit rate : 1 221 Kbps
      Width : 544 pixels
      Height : 400 pixels
      Display aspect ratio : 4:3
      Frame rate : 25.000 fps
      Color space : YUV
      Chroma subsampling : 4:2:0
      Bit depth : 8 bits
      Scan type : Progressive
      Compression mode : Lossy
      Bits/(Pixel*Frame) : 0.224
      Stream size : 767 MiB (86%)
      Writing library : XviD 1.2.0.dev47 (UTC 2006-11-01)
   Audio #1
      ID : 1
      Format : AC-3
      Format/Info : Audio Coding 3
      Mode extension : CM (complete main)
      Format settings, Endianness : Big
      Codec ID : 2000
      Duration : 1h 27mn
      Bit rate mode : Constant
      Bit rate : 192 Kbps
      Channel(s) : 2 channels
      Channel positions : Front: L R
      Sampling rate : 48.0 KHz
      Bit depth : 16 bits
      Compression mode : Lossy
      Stream size : 121 MiB (14%)
      Alignment : Aligned on interleaves
      Interleave, duration : 160 ms (4.00 video frames)
      Interleave, preload duration : 160 ms

Imagem Imagem
Imagem Imagem
Imagem Imagem


ed2k: Sciuscià.(1946).DVDRip.XviD-shadow.[TheRostrum.net].avi  [891.60 Mb]
Não tem Permissão para ver os ficheiros anexados nesta mensagem.
Sim eu sou mal educado e não agradeço/comento qdo clico em algo.

Avatar do Utilizador
tainacan
Utilizador
Utilizador
Mensagens: 580
Registado: 05 mai 2011, 06:04

Re: Sciuscià (1946) *DVDRip* - shadow

Mensagem por tainacan » 02 ago 2019, 15:06

:tks: :tks: :tks:

:cavalinho: :cavalinho: :cavalinho:

Responder

Voltar para “Filmes com Legendas // Movies with Subtitles”