Men in White (1934) *LBR FS DVDRip* - desvendandoestrelas

Moderador: Moderador

Responder
Avatar do Utilizador
arf100c
eMuleCoop
eMuleCoop
Mensagens: 7275
Registado: 08 jun 2009, 15:48

Men in White (1934) *LBR FS DVDRip* - desvendandoestrelas

Mensagem por arf100c » 17 nov 2012, 23:12

´


Imagem

O Dr. George Ferguson trabalha como interno em um hospital e sonha em consolidar sua carreira trabalhando duro. Sua rica noiva, Laura, constantemente o pressiona para que passe mais tempo com ela e para que possam manter uma vida social ativa. Depois de um dia longo e difícil no hospital, George precisa cancelar um jantar com a noiva, que fica muito irritada, provocando uma briga. Ao encontrar a enfermeira Barbara, com a qual tinha trabalhado durante o dia em um caso complicado com uma criança, os dois passam a conversar sobre a pressão e a solidão que a profissão que escolheram pode trazer e acabam cedendo a esse momento, procurando um no outro consolo para seus problemas. Após se reconciliar com a noiva, precisando, para isso, abrir mão dos seus sonhos e aceitar um cargo de confiança no hospital ao invés de terminar os estudos, George descobre que Barbara está internada em estado grave devido a um aborto mal realizado. Laura, que assistia a operação, escuta quando Barbara diz a George que o ama e liga os fatos, recusando-se a falar com o noivo e rompendo o compromisso. Após a cirurgia, George cai em um estado de extrema depressão e culpa, prometendo casar com Barbara, caso essa se recupere, a fim de que possa reparar o mal que sente que fez. A enfermeira, em estado critico, pede à Laura que a perdoe e cuide de George. Agora, os dois precisarão esquecer os erros cometidos e tentar seguir em frente.


imdb.com
Men in White (1934)

Capa
Sinopse:An idealistic doctor must make some hard choices between his dedication to the profession and his personal life.
Pontuação:6.4
Duração:74 minutos
Idioma:English
Realizador:Richard Boleslawski
Actores:Clark Gable, Myrna Loy, Jean Hersholt, Elizabeth Allan, Otto Kruger
  
Fonte:http://www.imdb.com/title/tt0025489
Última Actualização:Segunda Março 12, 2018 01:52


Imagem

Código: Selecionar todos

   General
      Complete name : 1934 - Men in White (1934) Alma de Médico - Ciclo Clark Gable.avi
      Format : AVI
      Format/Info : Audio Video Interleave
      File size : 700 MiB
      Duration : 1h 13mn
      Overall bit rate : 1 330 Kbps
      Writing application : VirtualDubMod 1.5.10.2 (build 2542/release)
      Writing library : VirtualDubMod build 2542/release
   Video #0
      ID : 0
      Format : MPEG-4 Visual
      Format profile : AdvancedSimple@L5
      Format settings, BVOP : Yes
      Format settings, QPel : No
      Format settings, GMC : No warppoints
      Format settings, Matrix : Default (H.263)
      Muxing mode : Packed bitstream
      Codec ID : XVID
      Codec ID/Hint : XviD
      Duration : 1h 13mn
      Bit rate : 1 193 Kbps
      Width : 640 pixels
      Height : 480 pixels
      Display aspect ratio : 4:3
      Frame rate : 23.976 fps
      Resolution : 24 bits
      Colorimetry : 4:2:0
      Scan type : Progressive
      Bits/(Pixel*Frame) : 0.162
      Stream size : 628 MiB (90%)
      Writing library : XviD 64
   Audio #1
      ID : 1
      Format : MPEG Audio
      Format version : Version 1
      Format profile : Layer 3
      Codec ID : 55
      Codec ID/Hint : MP3
      Duration : 1h 13mn
      Bit rate mode : Constant
      Bit rate : 128 Kbps
      Channel(s) : 1 channel
      Sampling rate : 48.0 KHz
      Resolution : 16 bits
      Stream size : 67.3 MiB (10%)
      Alignment : Aligned on interleaves
      Interleave, duration : 42 ms (1.00 video frame)
      Interleave, preload duration : 504 ms
      Writing library : LAME3.98r
      Encoding settings : -m m -V 4 -q 2 -lowpass 20.5 -b 128



Imagem





Responder
  • Tópicos Semelhantes
    Respostas
    Visualizações
    Última Mensagem

Voltar para “Filmes com Legendas // Movies with Subtitles”