Kes (1969) *DVDRip* - AnDrOiD

Moderador: Moderador

Responder
Avatar do Utilizador
arf100c
eMuleCoop
eMuleCoop
Mensagens: 7304
Registado: 08 jun 2009, 15:48

Kes (1969) *DVDRip* - AnDrOiD

Mensagem por arf100c » 21 ago 2012, 05:34

Imagem

Sinopse
Kes, de Ken Loach, 1969, Inglaterra - Billy (David Bradley) é um menino que vive com o seu irmão mais velho e a sua mãe numa cidade mineira inglesa e que se desdobra em treinar um falcão “Kes“, que se torna a sua grande paixão. O filme mostra cenas da vida inglesa dos anos 60 no contexto em que vive a família de Billy, sempre com o viés social que marcaria a carreira do então estreante Ken Loach. Loach vale-se do talento do jovem ator Bradley que leva o filme nas costas com grande competência e emociona o público com seu amor pela ave e em outros momentos do filme em que tem que fazer frente à sua situação familiar e a opressão da vida escolar. Um roteiro seco que conta a história sem momentos dispensáveis e que constrói um pequeno clássico do cinema contemporâneo.
imdb.com
Kes (1969)

Capa
Sinopse:A young, English working-class boy spends his free time caring for and training his pet falcon.
Pontuação:7.9
Duração:111 minutos
Idioma:English
Realizador:Ken Loach
Actores:David Bradley, Freddie Fletcher, Lynne Perrie, Colin Welland, Brian Glover
  
Fonte:http://www.imdb.com/title/tt0064541
Última Actualização:Segunda Março 12, 2018 03:09

Código: Selecionar todos

General
Complete name                            : F:\Incoming\Kes.(1969).DVDRip.XviD-AnDrOiD.[TheRostrum.net].avi
Format                                   : AVI
Format/Info                              : Audio Video Interleave
File size                                : 697 MiB
Duration                                 : 1 h 46 min
Overall bit rate                         : 915 kb/s
IsTruncated                              : Yes

Video
ID                                       : 0
Format                                   : MPEG-4 Visual
Format profile                           : Simple@L3
Format settings, BVOP                    : No
Format settings, QPel                    : No
Format settings, GMC                     : No warppoints
Format settings, Matrix                  : Default (MPEG)
Codec ID                                 : XVID
Codec ID/Hint                            : XviD
Duration                                 : 1 h 46 min
Bit rate                                 : 809 kb/s
Width                                    : 560 pixels
Height                                   : 336 pixels
Display aspect ratio                     : 5:3
Frame rate                               : 25.000 FPS
Color space                              : YUV
Chroma subsampling                       : 4:2:0
Bit depth                                : 8 bits
Scan type                                : Progressive
Compression mode                         : Lossy
Bits/(Pixel*Frame)                       : 0.172
Stream size                              : 616 MiB (88%)
Writing library                          : XviD 0.0.09 (UTC 2003-03-25)

Audio
ID                                       : 1
Format                                   : MPEG Audio
Format version                           : Version 1
Format profile                           : Layer 3
Codec ID                                 : 55
Codec ID/Hint                            : MP3
Duration                                 : 1 h 46 min
Bit rate mode                            : Constant
Bit rate                                 : 96.0 kb/s
Channel(s)                               : 2 channels
Sampling rate                            : 44.1 kHz
Compression mode                         : Lossy
Delay relative to video                  : 26 ms
Stream size                              : 73.2 MiB (10%)
Alignment                                : Split across interleaves
Interleave, duration                     : 40  ms (1.00 video frame)
Title                                    : Audio Stream
Writing library                          : LAME3.92



Imagem Imagem
Imagem Imagem


ed2k: Kes.(1969).DVDRip.XviD-AnDrOiD.[TheRostrum.net].avi  [697.10 Mb]
Não tem Permissão para ver os ficheiros anexados nesta mensagem.

Avatar do Utilizador
tainacan
Utilizador
Utilizador
Mensagens: 580
Registado: 05 mai 2011, 06:04

Re: Kes (1969) *DVDRip* - AnDrOiD

Mensagem por tainacan » 31 ago 2019, 14:52

:pompons: :pompons: :pompons:

Obrigado Obrigado Obrigado

Responder

Voltar para “Filmes com Legendas // Movies with Subtitles”