Judge Priest (1934) *DVDRip*

Moderador: Moderador

Responder
Avatar do Utilizador
arf100c
eMuleCoop
eMuleCoop
Mensagens: 7304
Registado: 08 jun 2009, 15:48

Judge Priest (1934) *DVDRip*

Mensagem por arf100c » 07 jul 2012, 05:01

Imagem

Sinopse
Este filme cheio de talento e graça, é uma bela visão sobre vida, onde o grande mestre Ford, já manifesta toda sua genialidade. A sequência inicial é deliciosa: o promotor - um sujeito rico, despótico - tenta condenar um negro que teria roubado galinhas. O negro diz ao Juiz Priest que não roubou, que naquela hora estava pescando - e o juiz pergunta pescando o que e com que tipo de isca. Dali a pouco, estão indo os dois, juiz e o ex-réu, pescar. Para Ford, neste filme, rico é imbecil e pobre é bom. Chega a ser maniqueísta, e ele dá diversos exemplos disso no desenrolar da trama. No final, há uma exaltação ao Sul vencido, contra o Norte vencedor da Guerra de Secessão; Ford toma o partido dos derrotados, sem qualquer vergonha. O próprio Ford, realizou o seu remake em 1953, com o título The Sun Shines Bright / O Sol Brilha na Imensidão.
imdb.com
Judge Priest (1934)

Capa
Sinopse:Judge Priest, a proud Confederate veteran, uses common sense and considerable humanity to dispense justice in a small town in the Post-Bellum Kentucky.
Pontuação:6.4
Duração:80 minutos
Idioma:English
Realizador:John Ford
Actores:Will Rogers, Tom Brown, Anita Louise, Henry B. Walthall, David Landau
  
Fonte:http://www.imdb.com/title/tt0025335
Última Actualização:Segunda Março 12, 2018 01:51

Código: Selecionar todos

General
Complete name                            : F:\Incoming\Judge.Priest.(1934).DVDRip.XviD.[TheRostrum.net].avi
Format                                   : AVI
Format/Info                              : Audio Video Interleave
File size                                : 1.07 GiB
Duration                                 : 1 h 20 min
Overall bit rate mode                    : Variable
Overall bit rate                         : 1 905 kb/s
Writing application                      : VirtualDubMod 1.5.4.1 (build 2178/release)
Writing library                          : VirtualDubMod build 2178/release

Video
ID                                       : 0
Format                                   : MPEG-4 Visual
Format profile                           : Advanced Simple@L5
Format settings                          : BVOP1 / Custom Matrix
Format settings, BVOP                    : 1
Format settings, QPel                    : No
Format settings, GMC                     : No warppoints
Format settings, Matrix                  : Custom
Codec ID                                 : XVID
Codec ID/Hint                            : XviD
Duration                                 : 1 h 20 min
Bit rate                                 : 1 821 kb/s
Width                                    : 640 pixels
Height                                   : 480 pixels
Display aspect ratio                     : 4:3
Frame rate                               : 23.976 (24000/1001) FPS
Color space                              : YUV
Chroma subsampling                       : 4:2:0
Bit depth                                : 8 bits
Scan type                                : Progressive
Compression mode                         : Lossy
Bits/(Pixel*Frame)                       : 0.247
Stream size                              : 1.02 GiB (96%)
Writing library                          : XviD 1.2.0.dev47 (UTC 2006-11-01)

Audio
ID                                       : 1
Format                                   : MPEG Audio
Format version                           : Version 1
Format profile                           : Layer 3
Codec ID                                 : 55
Codec ID/Hint                            : MP3
Duration                                 : 1 h 20 min
Bit rate mode                            : Variable
Bit rate                                 : 70.8 kb/s
Nominal bit rate                         : 88.0 kb/s
Channel(s)                               : 1 channel
Sampling rate                            : 48.0 kHz
Frame rate                               : 41.667 FPS (1152 SPF)
Compression mode                         : Lossy
Stream size                              : 40.8 MiB (4%)
Alignment                                : Aligned on interleaves
Interleave, duration                     : 24  ms (0.58 video frame)
Interleave, preload duration             : 260  ms
Writing library                          : LAME3.97 
Encoding settings                        : -m m -V 4 -q 2 -lowpass 20.5 --abr 88
Language                                 : English


Imagem Imagem
Imagem Imagem
Imagem Imagem


ed2k: Judge.Priest.(1934).DVDRip.XviD.[TheRostrum.net].avi  [1.07 Gb]
Não tem Permissão para ver os ficheiros anexados nesta mensagem.

Avatar do Utilizador
tainacan
Utilizador
Utilizador
Mensagens: 580
Registado: 05 mai 2011, 06:04

Re: Judge Priest (1934) *DVDRip*

Mensagem por tainacan » 16 jul 2019, 16:00

Bela comédia, obrigada, na mulinha

:cooldance: :cooldance: :cooldance:

:cavalinho: :cavalinho: :cavalinho:

Responder

Voltar para “Filmes com Legendas // Movies with Subtitles”