Freaks (1932) *DVDRip*

Moderador: Moderador

Responder
Avatar do Utilizador
arf100c
eMuleCoop
eMuleCoop
Mensagens: 7305
Registado: 08 jun 2009, 15:48

Freaks (1932) *DVDRip*

Mensagem por arf100c » 29 out 2011, 05:12

Imagem

Sinopse
O filme começa com um apresentador de circo prevenindo o público: "vocês verão monstros de verdade que vivem e respiram como gente...".
Cleópatra uma bela trapezista é amada pelo anão Hans. Ao saber da fortuna que Hans herdou, ela e o amante, Hércules, arquitetam um plano para se apossarem da herança. Fingindo corresponder ao seu amor, casa-se com Hans e tenta envenena-lo. Mas, seu plano criminoso é descoberto pelos "monstros", cuja vingança será implacável. "Monstros" é um dos filmes mais malditos e polêmicos de toda a história do cinema. Abrange todo o espectro do horror, de filme de arte a documentário. Incompreendido no seu lançamento, mutilado, censurado, proibido para alguns países, comprometeu gravemente a carreira de seu diretor, o também insólito Tod Browning (Diretor de Drácula). A realização deste filme só foi possível graças ao apoio dado pelo produtor Irving Thalberg. Foi desta forma, que a MGM aceitou lançar nas telas, os verdadeiros fenômenos circenses, aberrações estas, que não eram apenas ornamentos, mas sim, o tema principal da obra. Um mergulho "no âmago do eu doentio", que nos ensina que a mais terrível desumanidade que poderíamos conhecer, está dentro de cada um. "Monstros" acabou tornando-se mí­tico e especial, o filme mais assustador e comovente do cinema de horror de todos os tempos. Sem sombra de dúvidas!
imdb.com
Freaks (1932)

Capa
Sinopse:A circus' beautiful trapeze artist agrees to marry the leader of side-show performers, but his deformed friends discover she is only marrying him for his inheritance.
Pontuação:7.9
Duração:64 minutos
Idioma:English, German, French
Realizador:Tod Browning
Actores:Wallace Ford, Leila Hyams, Olga Baclanova, Roscoe Ates, Henry Victor
  
Fonte:http://www.imdb.com/title/tt0022913
Última Actualização:Segunda Março 12, 2018 01:50

Código: Selecionar todos

General
Complete name                            : F:\Incoming\Freaks.(1932).DVDRip.DivX5.[TheRostrum.net].avi
Format                                   : AVI
Format/Info                              : Audio Video Interleave
File size                                : 700 MiB
Duration                                 : 1 h 4 min
Overall bit rate mode                    : Variable
Overall bit rate                         : 1 523 kb/s
Writing application                      : Nandub v1.0rc2
Writing library                          : Nandub build 1852/release

Video
ID                                       : 0
Format                                   : MPEG-4 Visual
Format settings                          : BVOP1 / GMC2
Format settings, BVOP                    : 1
Format settings, QPel                    : No
Format settings, GMC                     : 2 warppoints
Format settings, Matrix                  : Default (H.263)
Muxing mode                              : Packed bitstream
Codec ID                                 : DX50
Codec ID/Hint                            : DivX 5
Duration                                 : 1 h 4 min
Bit rate                                 : 1 394 kb/s
Width                                    : 544 pixels
Height                                   : 416 pixels
Display aspect ratio                     : 4:3
Frame rate                               : 25.000 FPS
Color space                              : YUV
Chroma subsampling                       : 4:2:0
Bit depth                                : 8 bits
Scan type                                : Progressive
Compression mode                         : Lossy
Bits/(Pixel*Frame)                       : 0.246
Stream size                              : 641 MiB (92%)
Writing library                          : DivX 5.0.2 (UTC 2002-05-16)

Audio
ID                                       : 1
Format                                   : MPEG Audio
Format version                           : Version 1
Format profile                           : Layer 3
Format settings                          : Joint stereo / MS Stereo
Codec ID                                 : 55
Codec ID/Hint                            : MP3
Duration                                 : 1 h 4 min
Bit rate mode                            : Variable
Bit rate                                 : 116 kb/s
Nominal bit rate                         : 128 kb/s
Channel(s)                               : 2 channels
Sampling rate                            : 48.0 kHz
Frame rate                               : 41.667 FPS (1152 SPF)
Compression mode                         : Lossy
Stream size                              : 53.2 MiB (8%)
Alignment                                : Aligned on interleaves
Interleave, duration                     : 24  ms (0.60 video frame)
Interleave, preload duration             : 477  ms
Writing library                          : LAME3.92 
Encoding settings                        : -m j -V 0 -q 2 -lowpass 15.3 --abr 128


Imagem Imagem
Imagem Imagem
Imagem Imagem


ed2k: Freaks.(1932).DVDRip.DivX5.[TheRostrum.net].avi  [700.34 Mb]
Não tem Permissão para ver os ficheiros anexados nesta mensagem.

Avatar do Utilizador
tainacan
Utilizador
Utilizador
Mensagens: 579
Registado: 05 mai 2011, 06:04

Re: Freaks (1932) *DVDRip*

Mensagem por tainacan » 17 fev 2019, 13:59

Monstros de 1932, fiquei curiosa, como eram feitos.

Obrigada,

:cavalinho: :cavalinho: :cavalinho:

Avatar do Utilizador
tainacan
Utilizador
Utilizador
Mensagens: 579
Registado: 05 mai 2011, 06:04

Re: Freaks (1932) *DVDRip*

Mensagem por tainacan » 01 nov 2019, 22:52

Oi pessoal, a legenda está sem sincronia, sei que o tempo foi longo, mas só agora pude ver, obrigada

Avatar do Utilizador
MoRsE
Moderador Global
Moderador Global
Mensagens: 1803
Registado: 29 jul 2009, 02:32
Localização: Azores

Re: Freaks (1932) *DVDRip*

Mensagem por MoRsE » 01 nov 2019, 23:29

tainacan Escreveu:
01 nov 2019, 22:52
Oi pessoal, a legenda está sem sincronia, sei que o tempo foi longo, mas só agora pude ver, obrigada
Corrigido e adicionada nova legenda e novo link do filme. :nana2:
Imagem

Avatar do Utilizador
tainacan
Utilizador
Utilizador
Mensagens: 579
Registado: 05 mai 2011, 06:04

Re: Freaks (1932) *DVDRip*

Mensagem por tainacan » 02 nov 2019, 14:51

Muito bom, agradeço, vocês são bons demais

:you2: :you2:

:tks: :tks: :tks:

Responder

Voltar para “Filmes com Legendas // Movies with Subtitles”