Le feu follet (1963) *DVDRip*

Moderador: Moderador

Responder
Avatar do Utilizador
arf100c
eMuleCoop
eMuleCoop
Mensagens: 7305
Registado: 08 jun 2009, 15:48

Le feu follet (1963) *DVDRip*

Mensagem por arf100c » 01 mar 2011, 14:09

Imagem

Sinopse
O filme narra as últimas 48 horas de Alain Leroy (Maurice Ronet), um homem angustiado e perdido, que deixava um hospital, onde fazia um tratamento contra o alcoolismo. Lydia (Léna Skerla), sua amante tenta ajudá-lo, quando ele volta a Paris. Alain percorre bares e procura velhos amigos, em uma busca de si mesmo na reconstituição do passado. Mas o que Alain encontra em suas andanças é um vazio existencial, que o fará tomar uma decisão definitiva.
imdb.com
The Fire Within (1963)

Capa
Sinopse:Alain Leroy is having a course of treatment in a private hospital because of his problem with alcohol. Although he is constantly distressed, he leaves the hospital and tries to meet good ...
Pontuação:8.0
Duração:108 minutos
Idioma:French
Realizador:Louis Malle
Actores:Maurice Ronet, Léna Skerla, Yvonne Clech, Hubert Deschamps, Jean-Paul Moulinot
  
Fonte:http://www.imdb.com/title/tt0057058
Última Actualização:Segunda Março 12, 2018 02:50

Código: Selecionar todos

General
Complete name                            : C:\Le.Feu.Follet.(1963).DVDRip.XviD.[TheRostrum.net].avi
Format                                   : AVI
Format/Info                              : Audio Video Interleave
File size                                : 791 MiB
Duration                                 : 1 h 43 min
Overall bit rate                         : 1 066 kb/s
Writing application                      : VirtualDubMod 1.5.10.1 (build 2439/release)
Writing library                          : VirtualDubMod build 2439/release

Video
ID                                       : 0
Format                                   : MPEG-4 Visual
Format profile                           : Advanced Simple@L5
Format settings                          : BVOP2
Format settings, BVOP                    : 2
Format settings, QPel                    : No
Format settings, GMC                     : No warppoints
Format settings, Matrix                  : Default (H.263)
Codec ID                                 : XVID
Codec ID/Hint                            : XviD
Duration                                 : 1 h 43 min
Bit rate                                 : 832 kb/s
Width                                    : 512 pixels
Height                                   : 304 pixels
Display aspect ratio                     : 5:3
Frame rate                               : 25.000 FPS
Color space                              : YUV
Chroma subsampling                       : 4:2:0
Bit depth                                : 8 bits
Scan type                                : Progressive
Compression mode                         : Lossy
Bits/(Pixel*Frame)                       : 0.214
Stream size                              : 618 MiB (78%)
Writing library                          : XviD 0039 build=2005.09.16 (UTC 2005-09-16)

Audio
ID                                       : 1
Format                                   : AC-3
Format/Info                              : Audio Coding 3
Commercial name                          : Dolby Digital
Codec ID                                 : 2000
Duration                                 : 1 h 43 min
Bit rate mode                            : Constant
Bit rate                                 : 224 kb/s
Channel(s)                               : 1 channel
Channel layout                           : C
Sampling rate                            : 48.0 kHz
Frame rate                               : 31.250 FPS (1536 SPF)
Bit depth                                : 16 bits
Compression mode                         : Lossy
Stream size                              : 166 MiB (21%)
Alignment                                : Split accross interleaves
Interleave, duration                     : 40  ms (1.00 video frame)
Interleave, preload duration             : 500  ms
Service kind                             : Complete Main

Imagem Imagem
Imagem Imagem
Imagem Imagem


ed2k: Le.Feu.Follet.(1963).DVDRip.XviD.[TheRostrum.net].avi  [790.93 Mb]
Não tem Permissão para ver os ficheiros anexados nesta mensagem.

Avatar do Utilizador
tainacan
Utilizador
Utilizador
Mensagens: 579
Registado: 05 mai 2011, 06:04

Re: Le feu follet (1963) *DVDRip*

Mensagem por tainacan » 20 jan 2019, 21:11

:cavalinho: :cavalinho: :cavalinho: :cavalinho:

Responder

Voltar para “Filmes com Legendas // Movies with Subtitles”