Gunga Din (1939) *DVDRip*

Moderador: Moderador

Responder
Allan_sensei

Gunga Din (1939) *DVDRip*

Mensagem por Allan_sensei » 17 mar 2009, 02:07

Imagem

Sinopse
Baseado na obra de Rudyard Kipling.Três grandes amigos e soldados britânciso a serviço na Índia, estão ameaçados pela aparição da mulher que vai se casar com o espirituoso Ballantine (Douglas Fairbanks Jr. ). O espalhafatoso comandante MacChesney (Victor McLaglen) arma um esquema para manter Ballantine no exército enquanto seu segundo em comando, Cutter (Cary Grant) um caçador de tesouros, ocupa seu posto. Porém, todos esses planos são jogados no lixo, quando os Thugs, um bando de terríveis assassinos começa a derramar sangue e a ameaçar a vida dos soldados ingleses. Na retaguarda dessa batalha, encontramos Gunga Din (Sam Jaff), o humilde e leal carregador de água que sonha em um dia se tornar soldado, mas para isso antes ele terá que provar seu valor.
imdb.com
Gunga Din (1939)

Capa
Sinopse:In 19th century India, three British soldiers and a native waterbearer must stop a secret mass revival of the murderous Thuggee cult before it can rampage across the land.
Pontuação:7.5
Duração:117 minutos
Idioma:English
Realizador:George Stevens
Actores:Cary Grant, Victor McLaglen, Douglas Fairbanks Jr., Sam Jaffe, Eduardo Ciannelli
  
Fonte:http://www.imdb.com/title/tt0031398
Última Actualização:Segunda Março 12, 2018 01:56

Código: Selecionar todos

General
Complete name                            : F: Gunga.Din.(1939).DVDRip.XviD.[TheRostrum.net].avi
Format                                   : AVI
Format/Info                              : Audio Video Interleave
File size                                : 1.38 GiB
Duration                                 : 1 h 52 min
Overall bit rate                         : 1 768 kb/s
Writing application                      : VirtualDubMod 1.5.10.2 (build 2540/release)
Writing library                          : VirtualDubMod build 2540/release

Video
ID                                       : 0
Format                                   : MPEG-4 Visual
Format profile                           : Advanced Simple@L5
Format settings                          : BVOP2
Format settings, BVOP                    : 2
Format settings, QPel                    : No
Format settings, GMC                     : No warppoints
Format settings, Matrix                  : Default (H.263)
Muxing mode                              : Packed bitstream
Codec ID                                 : XVID
Codec ID/Hint                            : XviD
Duration                                 : 1 h 52 min
Bit rate                                 : 1 694 kb/s
Width                                    : 720 pixels
Height                                   : 576 pixels
Display aspect ratio                     : 5:4
Frame rate                               : 25.000 FPS
Standard                                 : PAL
Color space                              : YUV
Chroma subsampling                       : 4:2:0
Bit depth                                : 8 bits
Scan type                                : Progressive
Compression mode                         : Lossy
Bits/(Pixel*Frame)                       : 0.163
Stream size                              : 1.33 GiB (96%)
Writing library                          : XviD 1.0.1 (UTC 2004-06-05)

Audio
ID                                       : 1
Format                                   : MPEG Audio
Format version                           : Version 1
Format profile                           : Layer 3
Codec ID                                 : 55
Codec ID/Hint                            : MP3
Duration                                 : 1 h 52 min
Bit rate mode                            : Constant
Bit rate                                 : 64.0 kb/s
Channel(s)                               : 1 channel
Sampling rate                            : 44.1 kHz
Compression mode                         : Lossy
Stream size                              : 51.3 MiB (4%)
Alignment                                : Split across interleaves
Interleave, duration                     : 40  ms (1.00 video frame)
Interleave, preload duration             : 500  ms


Imagem Imagem
Imagem Imagem
Imagem Imagem


ed2k: Gunga.Din.(1939).DVDRip.XviD.[TheRostrum.net].avi  [1.38 Gb]
Não tem Permissão para ver os ficheiros anexados nesta mensagem.
Última edição por Barefaced em 17 mar 2009, 04:53, editado 1 vez no total.

yosho

Re: Gunga Din (1939) *DVDRip*

Mensagem por yosho » 05 jun 2010, 13:48

Bom Dia, estou iniciando Hoje no Forum, esqueceram de informar qual o idioma do filme (inglês ou português), se tem legenda.

Aguardo.

E obrigado.

Avatar do Utilizador
tueunos
Utilizador
Utilizador
Mensagens: 7537
Registado: 17 mai 2008, 21:31
Localização: Algures Planeta Terra

Re: Gunga Din (1939) *DVDRip*

Mensagem por tueunos » 05 jun 2010, 22:13

yosho Escreveu:Bom Dia, estou iniciando Hoje no Forum, esqueceram de informar qual o idioma do filme (inglês ou português), se tem legenda.

Aguardo.

E obrigado.


Oi yosho, bem vindo ao THE ROSTRUM primeiro voce està numa secao de filmes nao legendados, dai nao tem legendas, e consultar a inf. do rip se existem ou nao.

Boa estadia, espero que disfrute da melhor maneiro do THE ROSTRUM.
Imagem

"A vida é uma pedra de amolar: desgasta-nos ou afia-nos, conforme o metal de que somos feitos."

"Eu sou responsável pelo que digo, não pelo que as pessoas entendem."

Avatar do Utilizador
tueunos
Utilizador
Utilizador
Mensagens: 7537
Registado: 17 mai 2008, 21:31
Localização: Algures Planeta Terra

Re: Gunga Din (1939) *DVDRip*

Mensagem por tueunos » 05 jun 2010, 22:33

yosho experimenta estas legendas http://www.opensubtitles.org/en/subtitles/3469513/gunga-din-pb depois diz algo!
Imagem

"A vida é uma pedra de amolar: desgasta-nos ou afia-nos, conforme o metal de que somos feitos."

"Eu sou responsável pelo que digo, não pelo que as pessoas entendem."

Avatar do Utilizador
arf100c
eMuleCoop
eMuleCoop
Mensagens: 7276
Registado: 08 jun 2009, 15:48

Re: Gunga Din (1939) *DVDRip*

Mensagem por arf100c » 27 out 2011, 04:05

legenda :brazil: para o release postado
Obrigado

Avatar do Utilizador
tainacan
Utilizador
Utilizador
Mensagens: 640
Registado: 05 mai 2011, 06:04

Re: Gunga Din (1939) *DVDRip*

Mensagem por tainacan » 19 nov 2019, 15:24

:cooldance: :cooldance: :cooldance:

:cavalinho: :cavalinho: :cavalinho:

Responder
  • Tópicos Semelhantes
    Respostas
    Visualizações
    Última Mensagem

Voltar para “Filmes com Legendas // Movies with Subtitles”