Queen Christina (1933) *DVDRip* - FRAGMENT

Moderador: Moderador

Responder
Avatar do Utilizador
Barefaced
Administrador
Administrador
Mensagens: 37290
Registado: 06 jul 2007, 17:43
Localização: @ Home
Contacto:

Queen Christina (1933) *DVDRip* - FRAGMENT

Mensagem por Barefaced » 29 set 2008, 19:37

Imagem

sinopse
Suécia, século 17: a rainha Christina abdica do trono para viver com o amante. Um dos filmes de antologia de Greta Garbo, com destaque para as cenas de amor entre ela e Gilbert e para o final.

Um dos melhores filmes da diva Greta Garbo, que interpreta a célebre rainha sueca que revoga todo o próprio poder, pelo seu amor. No século XVII, Cristina é ainda uma criança quando é coroada rainha, depois da morte de seu pai. O reinado é tranquilo e tão liberal como o comportamento da moça que, manda o cargo, deve casar-se. E para descobrir as reais intenções de um pretendente, o embaixador espanhol Antonio, ela disfarça-se de homem e vai ao encontro dele nem Espanha. E indo contra às tradições, os dois acabam vivendo uma paixão intensa.

O filme é apenas inspirado na vida da rainha, ela abdicou do trono por causa do seu catolicismo!
imdb.com
Queen Christina (1933)

Capa
Sinopse:Queen Christina of Sweden is a popular monarch who is loyal to her country. However, when she falls in love with a Spanish envoy, she must choose between the throne and the man she loves.
Pontuação:7.8
Duração:99 minutos
Idioma:English, Spanish
Realizador:Rouben Mamoulian
Actores:Greta Garbo, John Gilbert, Ian Keith, Lewis Stone, Elizabeth Young
  
Fonte:http://www.imdb.com/title/tt0024481
Última Actualização:Segunda Março 12, 2018 01:51

Código: Selecionar todos

General
Complete name                    : D:\eMule\Queen.Christina.(1933).FS.DVDRip.XviD-FRAGMENT.[sharethefiles.com].avi
Format                           : AVI
Format/Info                      : Audio Video Interleave
File size                        : 698 MiB
Duration                         : 1h 39mn
Overall bit rate                 : 982 Kbps
Writing application              : Nandub v1.0rc2
Writing library                  : Nandub build 1852/release

Video
ID                               : 0
Format                           : MPEG-4 Visual
Format profile                   : Advanced Simple@L5
Format settings, BVOP            : Yes
Format settings, QPel            : No
Format settings, GMC             : No warppoints
Format settings, Matrix          : Default (H.263)
Muxing mode                      : Packed bitstream
Codec ID                         : XVID
Codec ID/Hint                    : XviD
Duration                         : 1h 39mn
Bit rate                         : 897 Kbps
Width                            : 480 pixels
Height                           : 352 pixels
Display aspect ratio             : 4:3
Frame rate                       : 23.976 fps
Resolution                       : 8 bits
Colorimetry                      : 4:2:0
Scan type                        : Progressive
Bits/(Pixel*Frame)               : 0.221
Stream size                      : 637 MiB (91%)
Writing library                  : XviD 1.0.3 (UTC 2004-12-20)

Audio
ID                               : 1
Format                           : MPEG Audio
Format version                   : Version 1
Format profile                   : Layer 3
Codec ID                         : 55
Codec ID/Hint                    : MP3
Duration                         : 1h 39mn
Bit rate mode                    : Constant
Bit rate                         : 32.0 Kbps
Channel(s)                       : 1 channel
Sampling rate                    : 48.0 KHz
Stream size                      : 51.7 MiB (7%)
Alignment                        : Aligned on interleaves
Interleave, duration             : 24 ms (0.58 video frame)
Interleave, preload duration     : 210 ms
Writing library                  : LAME3.93

Imagem Imagem
Imagem Imagem


ed2k: Queen.Christina.(1933).DVDRip.XviD-FRAGMENT.avi  [697.51 Mb]
Não tem Permissão para ver os ficheiros anexados nesta mensagem.
Última edição por Barefaced em 29 set 2008, 19:43, editado 1 vez no total.
Imagem
Imagem

Avatar do Utilizador
arf100c
eMuleCoop
eMuleCoop
Mensagens: 7305
Registado: 08 jun 2009, 15:48

Re: Queen Christina (1933) *DVDRip* - FRAGMENT

Mensagem por arf100c » 25 out 2011, 23:00

screenshots e legenda do release postado

...::: Adicionados :::...

Obrigado

Avatar do Utilizador
tainacan
Utilizador
Utilizador
Mensagens: 579
Registado: 05 mai 2011, 06:04

Re: Queen Christina (1933) *DVDRip* - FRAGMENT

Mensagem por tainacan » 11 mai 2019, 15:08

:okok: :okok: :okok:

:cavalinho: :cavalinho: :cavalinho:

Responder

Voltar para “Filmes com Legendas // Movies with Subtitles”