Pink Flamingos (1972) *DVDRip* - FRAGMENT

Moderador: Moderador

Responder
Avatar do Utilizador
Barefaced
Administrador
Administrador
Mensagens: 37521
Registado: 06 jul 2007, 17:43
Localização: @ Home
Contacto:

Pink Flamingos (1972) *DVDRip* - FRAGMENT

Mensagem por Barefaced » 29 set 2008, 06:40

Imagem


Sinopse
"Pink Flamingos" é uma longa-metragem americana de baixo orçamento, escrita e dirigida por John Waters, lançada em 1972 no circuito "underground", onde alcançou notável sucesso e tornou-se um ícone do cinema bizarro. O filme conta a trajetória da "drag-queen" Divine e da sua família na competição contra o casal Connie e Raymond Marble pelo título de "pessoas mais sórdidas do mundo", insensatamente almejado.
No final do filme temos a famosa e chocante cena (real, sem cortes) de Divine comendo as fezes de um cão da rua. A pPrimeira e a única. Com um pé na exploração, esta comédia tipo horror classe B, encontrou no contexto político da época um público, pequeno mas representativo, que a admirasse, formado por adolescentes e universitários que viam na obra uma voz da contra-cultura.


imdb.com
Pink Flamingos (1972)

Capa
Sinopse:Notorious Baltimore criminal and underground figure Divine goes up against a sleazy married couple who make a passionate attempt to humiliate her and seize her tabloid-given title as "The Filthiest Person Alive".
Pontuação:6.1
Duração:93 minutos
Idioma:English
Realizador:John Waters
Actores:Divine, David Lochary, Mary Vivian Pearce, Mink Stole, Danny Mills
  
Fonte:http://www.imdb.com/title/tt0069089
Última Actualização:Segunda Março 12, 2018 03:18


Código: Selecionar todos

Complete name                    : E:\Emule\Pink.Flamingos.1972.DVDRip.XviD-FRAGMENT.[sharethefiles.com].avi
Format                           : AVI
Format/Info                      : Audio Video Interleave
File size                        : 699 MiB
Duration                         : 1h 47mn
Overall bit rate                 : 912 Kbps
Writing application              : Nandub v1.0rc2
Writing library                  : Nandub build 1852/release

[i]Video[/i]
Format                           : MPEG-4 Visual
Format profile                   : Streaming Video@L1
Format settings, BVOP            : Yes
Format settings, QPel            : No
Format settings, GMC             : No warppoints
Format settings, Matrix          : Default
Muxing mode                      : Packet Bitstream
Codec ID                         : XVID
Codec ID/Hint                    : XviD
Duration                         : 1h 47mn
Bit rate                         : 775 Kbps
Width                            : 544 pixels
Height                           : 288 pixels
Display aspect ratio             : 1.889
Frame rate                       : 23.976 fps
Resolution                       : 8 bits
Colorimetry                      : 4:2:0
Scan type                        : Progressive
Bits/(Pixel*Frame)               : 0.206
Stream size                      : 594 MiB (85%)
Writing library                  : XviD 1.0.1 (UTC 2004-06-05)

[i]Audio[/i]
Format                           : MPEG Audio
Format version                   : Version 1
Format profile                   : Layer 3
Codec ID                         : 55
Codec ID/Hint                    : MP3
Duration                         : 1h 47mn
Bit rate mode                    : Variable
Bit rate                         : 124 Kbps
Channel(s)                       : 2 channels
Sampling rate                    : 48.0 KHz
Resolution                       : 16 bits
Stream size                      : 95.0 MiB (14%)
Alignment                        : Aligned on interleaves
Interleave, duration             : 24 ms (0.58 video frame)
Interleave, preload duration     : 142 ms
Writing library                  : LAME3.93
Encoding settings                : VBR (mtrh)



Imagem

Imagem

Imagem

Imagem

Imagem


ed2k: Pink.Flamingos.(1972).DVDRip.XviD-FRAGMENT.avi  [698.54 Mb]
ed2k: Pink.Flamingos.1972.DVDRip.XviD-FRAGMENT.Subs.rar  [246.8 Kb]
Pink.Flamingos.1972.DVDRip.XviD-FRAGMENT.Subs.rar
Não tem Permissão para ver os ficheiros anexados nesta mensagem.
Imagem
Imagem

Responder

Voltar para “Filmes com Legendas // Movies with Subtitles”