The Taming of the Shrew (1967) *DVDRip*

Moderador: Moderador

Responder
Avatar do Utilizador
arf100c
eMuleCoop
eMuleCoop
Mensagens: 7305
Registado: 08 jun 2009, 15:48

The Taming of the Shrew (1967) *DVDRip*

Mensagem por arf100c » 11 jun 2012, 18:00

Imagem

Sinopse
Petruchio, um empobrecido cavalheiro de Verona, viaja a Pádua em busca de uma rica esposa. Lá ele encontra a ardente Katharina, uma mulher voluntariosa e briguenta que faz Petruchio enfrentar uma divertida batalha para conseguir dissuadi-la a evitar o matrimônio. Sua lua de mel se torna uma hilariante disputa de inteligência e insultos, com Kate determinada a manter sua independência, enquanto Petruchio faz de tudo para domá-la.
imdb.com
Der Widerspenstigen Zähmung (1967)

Capa
Sinopse:Brutish, fortune-hunting scoundrel Petruchio tames his wealthy, shrewish wife, Katharina.
Pontuação:7.2
Duração:122 minutos
Idioma:English
Realizador:Franco Zeffirelli
Actores:Elizabeth Taylor, Richard Burton, Cyril Cusack, Michael Hordern, Alfred Lynch
  
Fonte:http://www.imdb.com/title/tt0061407
Última Actualização:Segunda Março 12, 2018 03:01

Código: Selecionar todos

General
Complete name                            : The.Taming.Of.The.Shrew.(1967).DVDRip.XviD.[TheRostrum.net].avi
Format                                   : AVI
Format/Info                              : Audio Video Interleave
File size                                : 1.33 GiB
Duration                                 : 1h 56mn
Overall bit rate                         : 1 635 Kbps
Writing application                      : VirtualDubMod 1.5.10.1 (build 2424/release)
Writing library                          : VirtualDubMod build 2424/release

Video
ID                                       : 0
Format                                   : MPEG-4 Visual
Format profile                           : Simple@L3
Format settings, BVOP                    : No
Format settings, QPel                    : No
Format settings, GMC                     : No warppoints
Format settings, Matrix                  : Default (H.263)
Codec ID                                 : XVID
Codec ID/Hint                            : XviD
Duration                                 : 1h 56mn
Bit rate                                 : 1 530 Kbps
Width                                    : 672 pixels
Height                                   : 272 pixels
Display aspect ratio                     : 2.471
Frame rate                               : 25.000 fps
Color space                              : YUV
Chroma subsampling                       : 4:2:0
Bit depth                                : 8 bits
Scan type                                : Progressive
Compression mode                         : Lossy
Bits/(Pixel*Frame)                       : 0.335
Stream size                              : 1.25 GiB (94%)
Writing library                          : XviD 0.0.09 (UTC 2003-03-25)

Audio
ID                                       : 1
Format                                   : MPEG Audio
Format version                           : Version 1
Format profile                           : Layer 3
Mode                                     : Joint stereo
Mode extension                           : Intensity Stereo + MS Stereo
Codec ID                                 : 55
Codec ID/Hint                            : MP3
Duration                                 : 1h 56mn
Bit rate mode                            : Constant
Bit rate                                 : 96.0 Kbps
Channel(s)                               : 2 channels
Sampling rate                            : 44.1 KHz
Compression mode                         : Lossy
Delay relative to video                  : 9s 968ms
Stream size                              : 80.1 MiB (6%)
Alignment                                : Split accross interleaves
Interleave, duration                     : 40 ms (1.00 video frame)
Interleave, preload duration             : 500 ms


Imagem Imagem
Imagem Imagem
Imagem Imagem


ed2k: The.Taming.Of.The.Shrew.(1967).DVDRip.XviD.avi  [1.33 Gb]
Não tem Permissão para ver os ficheiros anexados nesta mensagem.

Avatar do Utilizador
arf100c
eMuleCoop
eMuleCoop
Mensagens: 7305
Registado: 08 jun 2009, 15:48

Re: The Taming of the Shrew (1967) *DVDRip*

Mensagem por arf100c » 30 jun 2012, 02:03

recolocando legenda

Avatar do Utilizador
tainacan
Utilizador
Utilizador
Mensagens: 577
Registado: 05 mai 2011, 06:04

Re: The Taming of the Shrew (1967) *DVDRip*

Mensagem por tainacan » 23 mai 2019, 16:10

Na mulinha, obrigada

:you2: :you2: :you2:

:cavalinho: :cavalinho: :cavalinho:

Responder

Voltar para “Filmes com Legendas // Movies with Subtitles”