Rio Lobo (1970) [Dual (eng-ptbr)] *DVDRip* - Kedao

Filmes em português (Brasil ou Portugal) (Dubbed).

Moderador: Moderador

Responder
Avatar do Utilizador
arf100c
eMuleCoop
eMuleCoop
Mensagens: 7277
Registado: 08 jun 2009, 15:48

Rio Lobo (1970) [Dual (eng-ptbr)] *DVDRip* - Kedao

Mensagem por arf100c » 15 jan 2013, 12:03




Imagem

Depois da Guerra Civil, oficial procura pelo traidor que causou a morte de um amigo e a derrota de seus homens. Vai para a cidade de Rio Lobo, onde se envolve com uma garota e um mexicano.


imdb.com
Rio Lobo (1970)

Capa
Sinopse:After the Civil War, Cord McNally searches for the traitor whose treachery caused the defeat of McNally's unit and the loss of a close friend.
Pontuação:6.8
Duração:114 minutos
Idioma:English, Spanish
Realizador:Howard Hawks
Actores:John Wayne, Jorge Rivero, Jennifer O'Neill, Jack Elam, Christopher Mitchum
  
Fonte:http://www.imdb.com/title/tt0066301
Última Actualização:Segunda Março 12, 2018 03:13


Imagem


Código: Selecionar todos

General
Complete name                            : C:\eMule\Rio.Lobo.(1971).DVDRip.XviD.Dublado.PtBr.[TheRostrum.net].avi
Format                                   : AVI
Format/Info                              : Audio Video Interleave
File size                                : 803 MiB
Duration                                 : 1h 41mn
Overall bit rate                         : 1 111 Kbps
Writing application                      : FairUse Wizard - http://fairusewizard.com
Writing library                          : The best and REALLY easy backup tool

Video
ID                                       : 0
Format                                   : MPEG-4 Visual
Format profile                           : Advanced Simple@L5
Format settings, BVOP                    : 1
Format settings, QPel                    : No
Format settings, GMC                     : No warppoints
Format settings, Matrix                  : Default (MPEG)
Muxing mode                              : Packed bitstream
Codec ID                                 : XVID
Codec ID/Hint                            : XviD
Duration                                 : 1h 41mn
Bit rate                                 : 837 Kbps
Width                                    : 608 pixels
Height                                   : 304 pixels
Display aspect ratio                     : 2.000
Frame rate                               : 29.970 fps
Color space                              : YUV
Chroma subsampling                       : 4:2:0
Bit depth                                : 8 bits
Scan type                                : Progressive
Compression mode                         : Lossy
Bits/(Pixel*Frame)                       : 0.151
Stream size                              : 605 MiB (75%)
Writing library                          : XviD 1.2.0.dev47 (UTC 2006-11-01)

Audio #1
ID                                       : 1
Format                                   : MPEG Audio
Format version                           : Version 1
Format profile                           : Layer 3
Mode                                     : Joint stereo
Mode extension                           : MS Stereo
Codec ID                                 : 55
Codec ID/Hint                            : MP3
Duration                                 : 1h 41mn
Bit rate mode                            : Constant
Bit rate                                 : 128 Kbps
Channel(s)                               : 2 channels
Sampling rate                            : 48.0 KHz
Compression mode                         : Lossy
Stream size                              : 92.6 MiB (12%)
Alignment                                : Aligned on interleaves
Interleave, duration                     : 33 ms (1.00 video frame)
Interleave, preload duration             : 504 ms
Writing library                          : LAME3.97b
Encoding settings                        : -m j -V 4 -q 2 -lowpass 17 -b 128

Audio #2
ID                                       : 2
Format                                   : MPEG Audio
Format version                           : Version 1
Format profile                           : Layer 3
Mode                                     : Joint stereo
Mode extension                           : MS Stereo
Codec ID                                 : 55
Codec ID/Hint                            : MP3
Duration                                 : 1h 41mn
Bit rate mode                            : Constant
Bit rate                                 : 128 Kbps
Channel(s)                               : 2 channels
Sampling rate                            : 48.0 KHz
Compression mode                         : Lossy
Stream size                              : 92.6 MiB (12%)
Alignment                                : Aligned on interleaves
Interleave, duration                     : 33 ms (1.00 video frame)
Interleave, preload duration             : 504 ms
Writing library                          : LAME3.97b
Encoding settings                        : -m j -V 4 -q 2 -lowpass 17 -b 128






Não tem Permissão para ver os ficheiros anexados nesta mensagem.

Responder
  • Tópicos Semelhantes
    Respostas
    Visualizações
    Última Mensagem

Voltar para “Filmes Áudio // Movies Sound Doubled”