Duel (1971) *BR DVDRip*

Filmes em português (Brasil ou Portugal) (Dubbed).

Moderador: Moderador

Responder
Avatar do Utilizador
arf100c
eMuleCoop
eMuleCoop
Mensagens: 7334
Registado: 08 jun 2009, 15:48

Duel (1971) *BR DVDRip*

Mensagem por arf100c » 01 set 2012, 21:40

Imagem


Sinopse
Antes de se tornar famoso no mundo do cinema com tubarões, dinossauros e extraterrestres com saudades de casa, um jovem Spielberg dirigiu este thriller alucinante sobre um inocente condutor aterrorizado por um diabólico camião. Sendo a primeira longa-metragem de Spielberg "Um Assassino pelas Costas" ajudou-o a iniciar a sua carreira no grande ecrã com uma cativante história de acção, saudada pela crítica como um filme que "... pertence à prateleira dos clássicos reservada para os melhores filmes de suspense" (Daily Variety). Dennis Weaver é um vendedor que se encontra a viajar e que irá empreender uma desesperada batalha pela sua sobrevivência depois de ser misteriosamente escolhido como um alvo a abater. Elogiado pelo seu hábil uso de incessante e crescente tensão psicológica, "Um Assassino pelas Costas" apresenta uma das maiores e excepcionais "personagens" aterradoras da história do cinema: um enorme e violento camião de 40 toneladas com mais sentimentos ameaçadores do que a maioria dos vilões humanos. Mas Steven Spielberg estava, literalmente a começar. Ums anos mais tarde, o grande sucesso de Spielberg "Tubarão" faria eco a "Um Assassino pelas Costas", a história de um herói solitário que numa emocionante batalha luta até ao fim contra um monstruoso e inumano inimigo.


imdb.com
Duel (1971)

Capa
Sinopse:A business commuter is pursued and terrorized by the malevolent driver of a massive tractor-trailer.
Pontuação:7.7
Duração:90 minutos
Idioma:English
Realizador:Steven Spielberg
Actores:Dennis Weaver, Jacqueline Scott, Eddie Firestone, Lou Frizzell, Gene Dynarski
  
Fonte:http://www.imdb.com/title/tt0067023
Última Actualização:Segunda Março 12, 2018 03:15


Código: Selecionar todos

General
Complete name                            : D:\eMule\Encurralado.(1971).DVDRip.DivX5.AC3.Dublado.[TheRostrum.net].avi
Format                                   : AVI
Format/Info                              : Audio Video Interleave
File size                                : 699 MiB
Duration                                 : 1h 29mn
Overall bit rate                         : 1 094 Kbps
Writing application                      : FairUse Wizard - http://fairusewizard.com
Writing library                          : The best and REALLY easy backup tool

Video
ID                                       : 0
Format                                   : MPEG-4 Visual
Format settings, BVOP                    : 1
Format settings, QPel                    : No
Format settings, GMC                     : No warppoints
Format settings, Matrix                  : Default (H.263)
Muxing mode                              : Packed bitstream
Codec ID                                 : DX50
Codec ID/Hint                            : DivX 5
Duration                                 : 1h 29mn
Bit rate                                 : 700 Kbps
Width                                    : 480 pixels
Height                                   : 336 pixels
Display aspect ratio                     : 1.429
Frame rate                               : 23.976 fps
Color space                              : YUV
Chroma subsampling                       : 4:2:0
Bit depth                                : 8 bits
Scan type                                : Progressive
Compression mode                         : Lossy
Bits/(Pixel*Frame)                       : 0.181
Stream size                              : 447 MiB (64%)
Writing library                          : DivX 6.7.0 (UTC 2007-09-20)

Audio
ID                                       : 1
Format                                   : AC-3
Format/Info                              : Audio Coding 3
Mode extension                           : CM (complete main)
Format settings, Endianness              : Big
Codec ID                                 : 2000
Duration                                 : 1h 29mn
Bit rate mode                            : Constant
Bit rate                                 : 384 Kbps
Channel(s)                               : 6 channels
Channel positions                        : Front: L C R, Side: L R, LFE
Sampling rate                            : 48.0 KHz
Bit depth                                : 16 bits
Compression mode                         : Lossy
Stream size                              : 245 MiB (35%)
Alignment                                : Split accross interleaves
Interleave, duration                     : 42 ms (1.00 video frame)
Interleave, preload duration             : 500 ms



Imagem


ed2k: Encurralado.(1971).Dublado.avi  [698.62 Mb]

Avatar do Utilizador
tainacan
Utilizador
Utilizador
Mensagens: 538
Registado: 05 mai 2011, 06:04

Re: Duel (1971) *BR DVDRip*

Mensagem por tainacan » 18 jun 2017, 15:22

:lap:

:cavalinho:

Responder

Voltar para “Filmes Áudio // Movies Sound Doubled”