In The Heat Of The Night (1967) [Dual (eng-ptbr)] *DVDRip* - cinefila

Filmes em português (Brasil ou Portugal) (Dubbed).

Moderador: Moderador

Responder
Avatar do Utilizador
arf100c
eMuleCoop
eMuleCoop
Mensagens: 7317
Registado: 08 jun 2009, 15:48

In The Heat Of The Night (1967) [Dual (eng-ptbr)] *DVDRip* - cinefila

Mensagem por arf100c » 17 ago 2012, 18:38

Imagem


Sinopse
No Calor da Noite é um filme poderoso que proporciona o mais alto grau de entretenimento! Ao viajar ao sul do paà­s, Virgil Tibbs, um detetive negro do departamento de homicà­dios da Philadelphia, acaba involuntariamente envolvido na investigação do assassinato de um importante empresário local, sendo primeiramente acusado do crime e depois convidado a solucioná-lo. Encontrar o assassino torna-se particularmente difà­cil pois seus esforços são constantemente boicotados pelo preconceituoso Delegado local(Steiger). Mas nenhum dos dois pode resolver este caso sozinho e, colocando de lado suas diferenças e preconceitos, unem forças em uma corrida desesperada contra o tempo que os levará a descobrir a chocante verdade.


imdb.com
In the Heat of the Night (1967)

Capa
Sinopse:An African American police detective is asked to investigate a murder in a racially hostile southern town.
Pontuação:8.0
Duração:110 minutos
Idioma:English
Realizador:Norman Jewison
Actores:Sidney Poitier, Rod Steiger, Warren Oates, Lee Grant, Larry Gates
  
Fonte:http://www.imdb.com/title/tt0061811
Última Actualização:Segunda Março 12, 2018 03:02


Código: Selecionar todos

General
Complete name        : D:\eMule\In.the.Heat.of.the.Night.(1967).Dual.(Ptbr.Eng).DVDRip.XviD.AC3-cinefila.[TheRostrum.net].avi
Format                                   : AVI
Format/Info                              : Audio Video Interleave
File size                                : 1.07 GiB
Duration                                 : 1h 49mn
Overall bit rate                         : 1 391 Kbps
Writing application                      : FairUse Wizard - http://fairusewizard.com
Writing library                          : The best and REALLY easy backup tool

Video
ID                                       : 0
Format                                   : MPEG-4 Visual
Format profile                           : Advanced Simple@L5
Format settings, BVOP                    : 2
Format settings, QPel                    : No
Format settings, GMC                     : No warppoints
Format settings, Matrix                  : Default (H.263)
Muxing mode                              : Packed bitstream
Codec ID                                 : XVID
Codec ID/Hint                            : XviD
Duration                                 : 1h 49mn
Bit rate                                 : 993 Kbps
Width                                    : 576 pixels
Height                                   : 368 pixels
Display aspect ratio                     : 1.565
Frame rate                               : 23.976 fps
Color space                              : YUV
Chroma subsampling                       : 4:2:0
Bit depth                                : 8 bits
Scan type                                : Progressive
Compression mode                         : Lossy
Bits/(Pixel*Frame)                       : 0.195
Stream size                              : 780 MiB (71%)
Writing library                          : XviD 1.2.0.dev47 (UTC 2006-11-01)

Audio #1
ID                                       : 1
Format                                   : AC-3
Format/Info                              : Audio Coding 3
Mode extension                           : CM (complete main)
Format settings, Endianness              : Big
Codec ID                                 : 2000
Duration                                 : 1h 49mn
Bit rate mode                            : Constant
Bit rate                                 : 192 Kbps
Channel(s)                               : 2 channels
Channel positions                        : Front: L R
Sampling rate                            : 48.0 KHz
Bit depth                                : 16 bits
Compression mode                         : Lossy
Stream size                              : 151 MiB (14%)
Alignment                                : Split accross interleaves
Interleave, duration                     : 42 ms (1.00 video frame)
Interleave, preload duration             : 500 ms

Audio #2
ID                                       : 2
Format                                   : AC-3
Format/Info                              : Audio Coding 3
Mode extension                           : CM (complete main)
Format settings, Endianness              : Big
Codec ID                                 : 2000
Duration                                 : 1h 49mn
Bit rate mode                            : Constant
Bit rate                                 : 192 Kbps
Channel(s)                               : 2 channels
Channel positions                        : Front: L R
Sampling rate                            : 48.0 KHz
Bit depth                                : 16 bits
Compression mode                         : Lossy
Stream size                              : 151 MiB (14%)
Alignment                                : Split accross interleaves
Interleave, duration                     : 42 ms (1.00 video frame)
Interleave, preload duration             : 500 ms



Imagem
Imagem
Imagem
Imagem
Imagem
Imagem
Imagem


ed2k: No.Calor.da.Noite.(1967).Ptbr.Eng.DvdRip.Xvid.Ac3.Brazilinjapan.By.cinefila.avi  [1.07 Gb]
Não tem Permissão para ver os ficheiros anexados nesta mensagem.

Avatar do Utilizador
tainacan
Utilizador
Utilizador
Mensagens: 559
Registado: 05 mai 2011, 06:04

Re: In The Heat Of The Night (1967) [Dual (eng-ptbr)] *DVDRip* - cinefila

Mensagem por tainacan » 02 jun 2017, 15:27

Com Sidney Poitier imperdível, obrigada
:cavalinho:

Responder

Voltar para “Filmes Áudio // Movies Sound Doubled”