Tarzan's Secret Treasure (1941) [Dual (eng-ptbr)] - Kedao

Filmes em português (Brasil ou Portugal) (Dubbed).

Moderador: Moderador

Responder
Avatar do Utilizador
arf100c
eMuleCoop
eMuleCoop
Mensagens: 7317
Registado: 08 jun 2009, 15:48

Tarzan's Secret Treasure (1941) [Dual (eng-ptbr)] - Kedao

Mensagem por arf100c » 11 jul 2012, 18:59




Imagem

Os brilhantes atores Reginald Owen e Berry Fitzgerald contracenam com Johnny Weissmuller e Maureen O?Sullivan num dos melhores filmes do mundo civilizado, é capturado pela tribo Ubardi, Boy é salvo pelo professor Elliot, chefe de uma expedição científica que foi selva em busca de ouro. Quando Tarzan descobre o objetivo do safári, entra em confronto com o grupo sendo alvejado por uma bala. Jane e Boy são levados como reféns. As sequências filmadas debaixo d?água foram realizadas na Flórida, onde construiu-se um rio enorme e uma selva que cobria trezentos e vinte mil metros quadrados, fazendo de O Tesouro de Tarzan uma das aventuras mais ambiciosas e excitantes de todos os tempos!


imdb.com
Tarzan's Secret Treasure (1941)

Capa
Sinopse:Tarzan's jungle home, and his family, Jane and Boy, are threatened by men greedy for gold.
Pontuação:6.9
Duração:81 minutos
Idioma:English
Realizador:Richard Thorpe
Actores:Johnny Weissmuller, Maureen O'Sullivan, Johnny Sheffield, Reginald Owen, Barry Fitzgerald
  
Fonte:http://www.imdb.com/title/tt0034266
Última Actualização:Segunda Março 12, 2018 02:00


Imagem

Código: Selecionar todos

General
Complete name                            : D:\eMule\Tarzan's.Secret.Treasure.(1941).FS.DVDRip.XviD.[Dual.(eng-ptbr)]-Kedao.[TheRostrum.net].avi
Format                                   : AVI
Format/Info                              : Audio Video Interleave
File size                                : 800 MiB
Duration                                 : 1h 20mn
Overall bit rate                         : 1 382 Kbps
Writing application                      : VirtualDubMod 1.5.4.1 (build 2117/release)
Writing library                          : VirtualDubMod build 2117/release

Video
ID                                       : 0
Format                                   : MPEG-4 Visual
Format profile                           : Advanced Simple@L5
Format settings, BVOP                    : 1
Format settings, QPel                    : No
Format settings, GMC                     : No warppoints
Format settings, Matrix                  : Default (H.263)
Muxing mode                              : Packed bitstream
Codec ID                                 : XVID
Codec ID/Hint                            : XviD
Duration                                 : 1h 20mn
Bit rate                                 : 1 112 Kbps
Width                                    : 608 pixels
Height                                   : 416 pixels
Display aspect ratio                     : 3:2
Frame rate                               : 23.976 fps
Color space                              : YUV
Chroma subsampling                       : 4:2:0
Bit depth                                : 8 bits
Scan type                                : Progressive
Compression mode                         : Lossy
Bits/(Pixel*Frame)                       : 0.183
Stream size                              : 644 MiB (80%)
Writing library                          : XviD 1.0.0 RC2 (Jambo) (UTC 2004-02-01)

Audio #1
ID                                       : 1
Format                                   : MPEG Audio
Format version                           : Version 1
Format profile                           : Layer 3
Mode                                     : Joint stereo
Mode extension                           : MS Stereo
Codec ID                                 : 55
Codec ID/Hint                            : MP3
Duration                                 : 1h 20mn
Bit rate mode                            : Constant
Bit rate                                 : 128 Kbps
Channel(s)                               : 2 channels
Sampling rate                            : 44.1 KHz
Compression mode                         : Lossy
Stream size                              : 74.1 MiB (9%)
Alignment                                : Split accross interleaves
Interleave, duration                     : 42 ms (1.00 video frame)
Interleave, preload duration             : 500 ms

Audio #2
ID                                       : 2
Format                                   : MPEG Audio
Format version                           : Version 1
Format profile                           : Layer 3
Mode                                     : Joint stereo
Mode extension                           : MS Stereo
Codec ID                                 : 55
Codec ID/Hint                            : MP3
Duration                                 : 1h 20mn
Bit rate mode                            : Constant
Bit rate                                 : 128 Kbps
Channel(s)                               : 2 channels
Sampling rate                            : 44.1 KHz
Compression mode                         : Lossy
Stream size                              : 74.1 MiB (9%)
Alignment                                : Split accross interleaves
Interleave, duration                     : 42 ms (1.00 video frame)
Interleave, preload duration             : 500 ms









Não tem Permissão para ver os ficheiros anexados nesta mensagem.

Avatar do Utilizador
arf100c
eMuleCoop
eMuleCoop
Mensagens: 7317
Registado: 08 jun 2009, 15:48

Re: Tarzan's Secret Treasure (1941) [Dual (eng-ptbr)] - Kedao

Mensagem por arf100c » 31 jul 2013, 20:03

anexando legenda

Responder

Voltar para “Filmes Áudio // Movies Sound Doubled”